  0
SECTION
  2
HEADER
  9
$ACADVER
  1
AC1032
  9
$ACADMAINTVER
 90
      327
  9
$DWGCODEPAGE
  3
ANSI_1252
  9
$LASTSAVEDBY
  1
AHary
  9
$REQUIREDVERSIONS
160
                 0
  9
$INSBASE
 10
0.0
 20
0.0
 30
0.0
  9
$EXTMIN
 10
1767.143274610987
 20
897.1932948972913
 30
0.0
  9
$EXTMAX
 10
2571.553873229107
 20
1750.320284164337
 30
0.0
  9
$LIMMIN
 10
0.0
 20
0.0
  9
$LIMMAX
 10
420.0
 20
297.0
  9
$ORTHOMODE
 70
     0
  9
$REGENMODE
 70
     1
  9
$FILLMODE
 70
     1
  9
$QTEXTMODE
 70
     0
  9
$MIRRTEXT
 70
     0
  9
$LTSCALE
 40
1.0
  9
$ATTMODE
 70
     1
  9
$TEXTSIZE
 40
2.5
  9
$TRACEWID
 40
1.0
  9
$TEXTSTYLE
  7
Standard
  9
$CLAYER
  8
0
  9
$CELTYPE
  6
ByLayer
  9
$CECOLOR
 62
   256
  9
$CELTSCALE
 40
1.0
  9
$DISPSILH
 70
     0
  9
$DIMSCALE
 40
5.0
  9
$DIMASZ
 40
2.5
  9
$DIMEXO
 40
0.625
  9
$DIMDLI
 40
3.75
  9
$DIMRND
 40
0.0
  9
$DIMDLE
 40
0.0
  9
$DIMEXE
 40
1.25
  9
$DIMTP
 40
0.0
  9
$DIMTM
 40
0.0
  9
$DIMTXT
 40
2.5
  9
$DIMCEN
 40
2.5
  9
$DIMTSZ
 40
0.0
  9
$DIMTOL
 70
     0
  9
$DIMLIM
 70
     0
  9
$DIMTIH
 70
     0
  9
$DIMTOH
 70
     0
  9
$DIMSE1
 70
     0
  9
$DIMSE2
 70
     0
  9
$DIMTAD
 70
     1
  9
$DIMZIN
 70
     8
  9
$DIMBLK
  1

  9
$DIMASO
 70
     1
  9
$DIMSHO
 70
     1
  9
$DIMPOST
  1

  9
$DIMAPOST
  1

  9
$DIMALT
 70
     0
  9
$DIMALTD
 70
     3
  9
$DIMALTF
 40
0.03937007874016
  9
$DIMLFAC
 40
1.0
  9
$DIMTOFL
 70
     1
  9
$DIMTVP
 40
0.0
  9
$DIMTIX
 70
     0
  9
$DIMSOXD
 70
     0
  9
$DIMSAH
 70
     0
  9
$DIMBLK1
  1

  9
$DIMBLK2
  1

  9
$DIMSTYLE
  2
ISO-25
  9
$DIMCLRD
 70
     0
  9
$DIMCLRE
 70
     0
  9
$DIMCLRT
 70
     0
  9
$DIMTFAC
 40
1.0
  9
$DIMGAP
 40
0.625
  9
$DIMJUST
 70
     0
  9
$DIMSD1
 70
     0
  9
$DIMSD2
 70
     0
  9
$DIMTOLJ
 70
     0
  9
$DIMTZIN
 70
     8
  9
$DIMALTZ
 70
     0
  9
$DIMALTTZ
 70
     0
  9
$DIMUPT
 70
     0
  9
$DIMDEC
 70
     2
  9
$DIMTDEC
 70
     2
  9
$DIMALTU
 70
     2
  9
$DIMALTTD
 70
     3
  9
$DIMTXSTY
  7
Standard
  9
$DIMAUNIT
 70
     0
  9
$DIMADEC
 70
     0
  9
$DIMALTRND
 40
0.0
  9
$DIMAZIN
 70
     0
  9
$DIMDSEP
 70
    44
  9
$DIMATFIT
 70
     3
  9
$DIMFRAC
 70
     0
  9
$DIMLDRBLK
  1

  9
$DIMLUNIT
 70
     2
  9
$DIMLWD
 70
    -2
  9
$DIMLWE
 70
    -2
  9
$DIMTMOVE
 70
     0
  9
$DIMFXL
 40
1.0
  9
$DIMFXLON
 70
     0
  9
$DIMJOGANG
 40
0.7853981633974483
  9
$DIMTFILL
 70
     0
  9
$DIMTFILLCLR
 70
     0
  9
$DIMARCSYM
 70
     0
  9
$DIMLTYPE
  6

  9
$DIMLTEX1
  6

  9
$DIMLTEX2
  6

  9
$DIMTXTDIRECTION
 70
     0
  9
$LUNITS
 70
     2
  9
$LUPREC
 70
     4
  9
$SKETCHINC
 40
1.0
  9
$FILLETRAD
 40
11.5
  9
$AUNITS
 70
     0
  9
$AUPREC
 70
     0
  9
$MENU
  1
.
  9
$ELEVATION
 40
0.0
  9
$PELEVATION
 40
0.0
  9
$THICKNESS
 40
0.0
  9
$LIMCHECK
 70
     0
  9
$CHAMFERA
 40
0.0
  9
$CHAMFERB
 40
0.0
  9
$CHAMFERC
 40
0.0
  9
$CHAMFERD
 40
0.0
  9
$SKPOLY
 70
     0
  9
$TDCREATE
 40
2460910.089699074
  9
$TDUCREATE
 40
2460910.256372917
  9
$TDUPDATE
 40
2460914.438148149
  9
$TDUUPDATE
 40
2460914.604814815
  9
$TDINDWG
 40
0.0225656250
  9
$TDUSRTIMER
 40
0.0225655671
  9
$USRTIMER
 70
     1
  9
$ANGBASE
 50
0.0
  9
$ANGDIR
 70
     0
  9
$PDMODE
 70
     0
  9
$PDSIZE
 40
0.0
  9
$PLINEWID
 40
0.0
  9
$SPLFRAME
 70
     0
  9
$SPLINETYPE
 70
     6
  9
$SPLINESEGS
 70
     8
  9
$HANDSEED
  5
496
  9
$SURFTAB1
 70
     6
  9
$SURFTAB2
 70
     6
  9
$SURFTYPE
 70
     6
  9
$SURFU
 70
     6
  9
$SURFV
 70
     6
  9
$UCSBASE
  2

  9
$UCSNAME
  2

  9
$UCSORG
 10
0.0
 20
0.0
 30
0.0
  9
$UCSXDIR
 10
1.0
 20
0.0
 30
0.0
  9
$UCSYDIR
 10
0.0
 20
1.0
 30
0.0
  9
$UCSORTHOREF
  2

  9
$UCSORTHOVIEW
 70
     0
  9
$UCSORGTOP
 10
0.0
 20
0.0
 30
0.0
  9
$UCSORGBOTTOM
 10
0.0
 20
0.0
 30
0.0
  9
$UCSORGLEFT
 10
0.0
 20
0.0
 30
0.0
  9
$UCSORGRIGHT
 10
0.0
 20
0.0
 30
0.0
  9
$UCSORGFRONT
 10
0.0
 20
0.0
 30
0.0
  9
$UCSORGBACK
 10
0.0
 20
0.0
 30
0.0
  9
$PUCSBASE
  2

  9
$PUCSNAME
  2

  9
$PUCSORG
 10
0.0
 20
0.0
 30
0.0
  9
$PUCSXDIR
 10
1.0
 20
0.0
 30
0.0
  9
$PUCSYDIR
 10
0.0
 20
1.0
 30
0.0
  9
$PUCSORTHOREF
  2

  9
$PUCSORTHOVIEW
 70
     0
  9
$PUCSORGTOP
 10
0.0
 20
0.0
 30
0.0
  9
$PUCSORGBOTTOM
 10
0.0
 20
0.0
 30
0.0
  9
$PUCSORGLEFT
 10
0.0
 20
0.0
 30
0.0
  9
$PUCSORGRIGHT
 10
0.0
 20
0.0
 30
0.0
  9
$PUCSORGFRONT
 10
0.0
 20
0.0
 30
0.0
  9
$PUCSORGBACK
 10
0.0
 20
0.0
 30
0.0
  9
$USERI1
 70
     0
  9
$USERI2
 70
     0
  9
$USERI3
 70
     0
  9
$USERI4
 70
     0
  9
$USERI5
 70
     0
  9
$USERR1
 40
0.0
  9
$USERR2
 40
0.0
  9
$USERR3
 40
0.0
  9
$USERR4
 40
0.0
  9
$USERR5
 40
0.0
  9
$WORLDVIEW
 70
     1
  9
$SHADEDGE
 70
     3
  9
$SHADEDIF
 70
    70
  9
$TILEMODE
 70
     1
  9
$MAXACTVP
 70
    64
  9
$PINSBASE
 10
0.0
 20
0.0
 30
0.0
  9
$PLIMCHECK
 70
     0
  9
$PEXTMIN
 10
25.69999999999999
 20
19.5
 30
0.0
  9
$PEXTMAX
 10
231.3
 20
175.5
 30
0.0
  9
$PLIMMIN
 10
-20.0
 20
-7.5
  9
$PLIMMAX
 10
277.0
 20
202.5
  9
$UNITMODE
 70
     0
  9
$VISRETAIN
 70
     1
  9
$PLINEGEN
 70
     0
  9
$PSLTSCALE
 70
     1
  9
$TREEDEPTH
 70
  3020
  9
$CMLSTYLE
  2
Standard
  9
$CMLJUST
 70
     0
  9
$CMLSCALE
 40
20.0
  9
$PROXYGRAPHICS
 70
     1
  9
$MEASUREMENT
 70
     1
  9
$CELWEIGHT
370
    -1
  9
$ENDCAPS
280
     0
  9
$JOINSTYLE
280
     0
  9
$LWDISPLAY
290
     0
  9
$INSUNITS
 70
     4
  9
$HYPERLINKBASE
  1

  9
$STYLESHEET
  1

  9
$XEDIT
290
     1
  9
$CEPSNTYPE
380
     0
  9
$PSTYLEMODE
290
     1
  9
$FINGERPRINTGUID
  2
{B677EBB6-4244-4A13-8D2D-AC98C2006C97}
  9
$VERSIONGUID
  2
{9801B1C8-0C9E-EF47-8B39-24C7BF6596EA}
  9
$EXTNAMES
290
     1
  9
$PSVPSCALE
 40
0.0
  9
$OLESTARTUP
290
     0
  9
$SORTENTS
280
   127
  9
$INDEXCTL
280
     0
  9
$HIDETEXT
280
     1
  9
$XCLIPFRAME
280
     0
  9
$HALOGAP
280
     0
  9
$OBSCOLOR
 70
   257
  9
$OBSLTYPE
280
     0
  9
$INTERSECTIONDISPLAY
280
     0
  9
$INTERSECTIONCOLOR
 70
   257
  9
$DIMASSOC
280
     2
  9
$PROJECTNAME
  1

  9
$CAMERADISPLAY
290
     0
  9
$LENSLENGTH
 40
50.0
  9
$CAMERAHEIGHT
 40
0.0
  9
$STEPSPERSEC
 40
2.0
  9
$STEPSIZE
 40
6.0
  9
$3DDWFPREC
 40
2.0
  9
$PSOLWIDTH
 40
5.0
  9
$PSOLHEIGHT
 40
80.0
  9
$LOFTANG1
 40
1.570796326794896
  9
$LOFTANG2
 40
1.570796326794896
  9
$LOFTMAG1
 40
0.0
  9
$LOFTMAG2
 40
0.0
  9
$LOFTPARAM
 70
     7
  9
$LOFTNORMALS
280
     1
  9
$LATITUDE
 40
37.795
  9
$LONGITUDE
 40
-122.394
  9
$NORTHDIRECTION
 40
0.0
  9
$TIMEZONE
 70
 -8000
  9
$LIGHTGLYPHDISPLAY
280
     1
  9
$TILEMODELIGHTSYNCH
280
     1
  9
$CMATERIAL
347
EC
  9
$SOLIDHIST
280
     1
  9
$SHOWHIST
280
     1
  9
$DWFFRAME
280
     2
  9
$DGNFRAME
280
     0
  9
$REALWORLDSCALE
290
     1
  9
$INTERFERECOLOR
 62
     1
  9
$INTERFEREOBJVS
345
F9
  9
$INTERFEREVPVS
346
25E
  9
$CSHADOW
280
     0
  9
$SHADOWPLANELOCATION
 40
0.0
  0
ENDSEC
  0
SECTION
  2
CLASSES
  0
CLASS
  1
ACDBDICTIONARYWDFLT
  2
AcDbDictionaryWithDefault
  3
ObjectDBX Classes
 90
        0
 91
        1
280
     0
281
     0
  0
CLASS
  1
DICTIONARYVAR
  2
AcDbDictionaryVar
  3
ObjectDBX Classes
 90
        0
 91
       12
280
     0
281
     0
  0
CLASS
  1
TABLESTYLE
  2
AcDbTableStyle
  3
ObjectDBX Classes
 90
     4095
 91
        1
280
     0
281
     0
  0
CLASS
  1
MATERIAL
  2
AcDbMaterial
  3
ObjectDBX Classes
 90
     1153
 91
        3
280
     0
281
     0
  0
CLASS
  1
VISUALSTYLE
  2
AcDbVisualStyle
  3
ObjectDBX Classes
 90
     4095
 91
       26
280
     0
281
     0
  0
CLASS
  1
SCALE
  2
AcDbScale
  3
ObjectDBX Classes
 90
     1153
 91
       33
280
     0
281
     0
  0
CLASS
  1
MLEADERSTYLE
  2
AcDbMLeaderStyle
  3
ACDB_MLEADERSTYLE_CLASS
 90
     4095
 91
        3
280
     0
281
     0
  0
CLASS
  1
CELLSTYLEMAP
  2
AcDbCellStyleMap
  3
ObjectDBX Classes
 90
     1152
 91
        2
280
     0
281
     0
  0
CLASS
  1
SORTENTSTABLE
  2
AcDbSortentsTable
  3
ObjectDBX Classes
 90
        0
 91
        5
280
     0
281
     0
  0
CLASS
  1
DIMASSOC
  2
AcDbDimAssoc
  3
"AcDbDimAssoc|Product Desc:     AcDim ARX App For Dimension|Company:          Autodesk, Inc.|WEB Address:      www.autodesk.com"
 90
        0
 91
        4
280
     0
281
     0
  0
CLASS
  1
SUN
  2
AcDbSun
  3
SCENEOE
 90
     1153
 91
        3
280
     0
281
     0
  0
CLASS
  1
ACDBSECTIONVIEWSTYLE
  2
AcDbSectionViewStyle
  3
ObjectDBX Classes
 90
     1025
 91
        1
280
     0
281
     0
  0
CLASS
  1
ACDBDETAILVIEWSTYLE
  2
AcDbDetailViewStyle
  3
ObjectDBX Classes
 90
     1025
 91
        1
280
     0
281
     0
  0
CLASS
  1
MULTILEADER
  2
AcDbMLeader
  3
ACDB_MLEADER_CLASS
 90
     1025
 91
        6
280
     0
281
     1
  0
ENDSEC
  0
SECTION
  2
TABLES
  0
TABLE
  2
VPORT
  5
8
330
0
100
AcDbSymbolTable
 70
     1
  0
VPORT
  5
EA
330
8
100
AcDbSymbolTableRecord
100
AcDbViewportTableRecord
  2
*Active
 70
     0
 10
0.0
 20
0.0
 11
1.0
 21
1.0
 12
2933.942831859151
 22
1021.363374119626
 13
0.0
 23
0.0
 14
10.0
 24
10.0
 15
10.0
 25
10.0
 16
0.0
 26
0.0
 36
1.0
 17
0.0
 27
0.0
 37
0.0
 40
1844.13093285117
 41
1.760416666666666
 42
50.0
 43
0.0
 44
0.0
 50
0.0
 51
0.0
 71
     0
 72
  1000
 73
     1
 74
     3
 75
     0
 76
     0
 77
     0
 78
     0
281
     0
 65
     1
110
0.0
120
0.0
130
0.0
111
1.0
121
0.0
131
0.0
112
0.0
122
1.0
132
0.0
 79
     0
146
0.0
348
F5
 60
     2
 61
     5
292
     1
282
     1
141
0.0
142
0.0
 63
   250
421
  3355443
361
26D
1001
ACAD_NAV_VCDISPLAY
1070
     3
  0
ENDTAB
  0
TABLE
  2
LTYPE
  5
5
330
0
100
AcDbSymbolTable
 70
     6
  0
LTYPE
  5
14
330
5
100
AcDbSymbolTableRecord
100
AcDbLinetypeTableRecord
  2
ByBlock
 70
     0
  3

 72
    65
 73
     0
 40
0.0
  0
LTYPE
  5
15
330
5
100
AcDbSymbolTableRecord
100
AcDbLinetypeTableRecord
  2
ByLayer
 70
     0
  3

 72
    65
 73
     0
 40
0.0
  0
LTYPE
  5
16
330
5
100
AcDbSymbolTableRecord
100
AcDbLinetypeTableRecord
  2
Continuous
 70
     0
  3
Solid line
 72
    65
 73
     0
 40
0.0
  0
LTYPE
  5
1E9
330
5
100
AcDbSymbolTableRecord
100
AcDbLinetypeTableRecord
  2
ACAD_ISO02W100
 70
     0
  3
ISO dash __ __ __ __ __ __ __ __ __ __ __ __ __
 72
    65
 73
     2
 40
15.0
 49
12.0
 74
     0
 49
-3.0
 74
     0
  0
LTYPE
  5
1EA
330
5
100
AcDbSymbolTableRecord
100
AcDbLinetypeTableRecord
  2
HIDDEN
 70
     0
  3
Hidden __ __ __ __ __ __ __ __ __ __ __ __ __ __
 72
    65
 73
     2
 40
9.525
 49
6.349999999999998
 74
     0
 49
-3.174999999999998
 74
     0
  0
LTYPE
  5
26E
330
5
100
AcDbSymbolTableRecord
100
AcDbLinetypeTableRecord
  2
DASHED
 70
     0
  3
Dashed __ __ __ __ __ __ __ __ __ __ __ __ __ _
 72
    65
 73
     2
 40
19.05
 49
12.7
 74
     0
 49
-6.349999999999999
 74
     0
  0
LTYPE
  5
26F
330
5
100
AcDbSymbolTableRecord
100
AcDbLinetypeTableRecord
  2
PHANTOM2
 70
     0
  3
Phantom (.5x) ___ _ _ ___ _ _ ___ _ _ ___ _ _ _
 72
    65
 73
     6
 40
31.75
 49
15.875
 74
     0
 49
-3.174999999999999
 74
     0
 49
3.174999999999999
 74
     0
 49
-3.174999999999999
 74
     0
 49
3.174999999999999
 74
     0
 49
-3.174999999999999
 74
     0
  0
ENDTAB
  0
TABLE
  2
LAYER
  5
2
102
{ACAD_XDICTIONARY
360
2A0
102
}
330
0
100
AcDbSymbolTable
 70
     3
  0
LAYER
  5
10
102
{ACAD_XDICTIONARY
360
13C
102
}
330
2
100
AcDbSymbolTableRecord
100
AcDbLayerTableRecord
  2
0
 70
     0
 62
     7
  6
Continuous
370
    -3
390
F
347
EE
348
0
  0
LAYER
  5
1B7
330
2
100
AcDbSymbolTableRecord
100
AcDbLayerTableRecord
  2
Defpoints
 70
     0
 62
     7
  6
Continuous
290
     0
370
    -3
390
F
347
EE
348
0
  0
LAYER
  5
271
330
2
100
AcDbSymbolTableRecord
100
AcDbLayerTableRecord
  2
GstarFastview4.2-ABCDEFGHIJKLMNOPQRSTUVWXYZ0123456789-note-layer-HCNoteLayer
 70
     0
 62
     7
  6
Continuous
370
    -3
390
F
347
EE
348
0
  0
ENDTAB
  0
TABLE
  2
STYLE
  5
3
330
0
100
AcDbSymbolTable
 70
     5
  0
STYLE
  5
11
330
3
100
AcDbSymbolTableRecord
100
AcDbTextStyleTableRecord
  2
Standard
 70
     0
 40
0.0
 41
1.0
 50
0.0
 71
     0
 42
2.5
  3
txt
  4
gbcbig.shx
  0
STYLE
  5
132
330
3
100
AcDbSymbolTableRecord
100
AcDbTextStyleTableRecord
  2
Annotative
 70
     0
 40
0.0
 41
1.0
 50
0.0
 71
     0
 42
2.5
  3
txt.shx
  4
gbcbig.shx
1001
AcadAnnotative
1000
AnnotativeData
1002
{
1070
     1
1070
     1
1002
}
  0
STYLE
  5
1E8
330
3
100
AcDbSymbolTableRecord
100
AcDbTextStyleTableRecord
  2

 70
     1
 40
0.0
 41
1.0
 50
0.0
 71
     0
 42
2.5
  3
ltypeshp.shx
  4
AllInOneBig.shx
  0
STYLE
  5
270
330
3
100
AcDbSymbolTableRecord
100
AcDbTextStyleTableRecord
  2
GstarFastview4.2-ABCDEFGHIJKLMNOPQRSTUVWXYZ0123456789-note-textstyle-HCNoteTextStyle
 70
     0
 40
0.0
 41
0.7
 50
0.0
 71
     0
 42
2.5
  3
AllInOneUni.shx
  4
AllInOneBig.shx
  0
STYLE
  5
299
330
3
100
AcDbSymbolTableRecord
100
AcDbTextStyleTableRecord
  2
Arial
 70
     0
 40
0.0
 41
1.0
 50
0.0
 71
     0
 42
0.2
  3
arial.ttf
  4

1001
ACAD
1000
Arial
1071
       34
  0
ENDTAB
  0
TABLE
  2
VIEW
  5
6
330
0
100
AcDbSymbolTable
 70
     3
  0
ENDTAB
  0
TABLE
  2
UCS
  5
7
330
0
100
AcDbSymbolTable
 70
     0
  0
ENDTAB
  0
TABLE
  2
APPID
  5
9
330
0
100
AcDbSymbolTable
 70
    14
  0
APPID
  5
12
330
9
100
AcDbSymbolTableRecord
100
AcDbRegAppTableRecord
  2
ACAD
 70
     0
  0
APPID
  5
9E
330
9
100
AcDbSymbolTableRecord
100
AcDbRegAppTableRecord
  2
ACAD_PSEXT
 70
     0
  0
APPID
  5
133
330
9
100
AcDbSymbolTableRecord
100
AcDbRegAppTableRecord
  2
AcadAnnoPO
 70
     0
  0
APPID
  5
134
330
9
100
AcDbSymbolTableRecord
100
AcDbRegAppTableRecord
  2
AcadAnnotative
 70
     0
  0
APPID
  5
135
330
9
100
AcDbSymbolTableRecord
100
AcDbRegAppTableRecord
  2
ACAD_DSTYLE_DIMJAG
 70
     0
  0
APPID
  5
136
330
9
100
AcDbSymbolTableRecord
100
AcDbRegAppTableRecord
  2
ACAD_DSTYLE_DIMTALN
 70
     0
  0
APPID
  5
165
330
9
100
AcDbSymbolTableRecord
100
AcDbRegAppTableRecord
  2
ACAD_MLEADERVER
 70
     0
  0
APPID
  5
1B5
330
9
100
AcDbSymbolTableRecord
100
AcDbRegAppTableRecord
  2
ACAD_DSTYLE_DIMRADIAL_EXTENSION
 70
     0
  0
APPID
  5
29B
330
9
100
AcDbSymbolTableRecord
100
AcDbRegAppTableRecord
  2
ACAD_NAV_VCDISPLAY
 70
     0
  0
APPID
  5
29C
330
9
100
AcDbSymbolTableRecord
100
AcDbRegAppTableRecord
  2
ACAD_DSTYLE_DIMBREAK
 70
     0
  0
APPID
  5
29D
330
9
100
AcDbSymbolTableRecord
100
AcDbRegAppTableRecord
  2
GradientColor1ACI
 70
     0
  0
APPID
  5
29E
330
9
100
AcDbSymbolTableRecord
100
AcDbRegAppTableRecord
  2
GradientColor2ACI
 70
     0
  0
APPID
  5
41C
330
9
100
AcDbSymbolTableRecord
100
AcDbRegAppTableRecord
  2
AcadAnnoMonitorAlertIconDisabled
 70
     0
  0
APPID
  5
41D
330
9
100
AcDbSymbolTableRecord
100
AcDbRegAppTableRecord
  2
ACAD_EXEMPT_FROM_CAD_STANDARDS
 70
     0
  0
ENDTAB
  0
TABLE
  2
DIMSTYLE
  5
A
330
0
100
AcDbSymbolTable
 70
     3
100
AcDbDimStyleTable
 71
     0
  0
DIMSTYLE
105
27
330
A
100
AcDbSymbolTableRecord
100
AcDbDimStyleTableRecord
  2
ISO-25
 70
     0
 40
5.0
 41
2.5
 42
0.625
 43
3.75
 44
1.25
 73
     0
 74
     0
 77
     1
 78
     8
140
2.5
141
2.5
143
0.03937007874016
147
0.625
171
     3
172
     1
271
     2
272
     2
274
     3
278
    44
283
     0
284
     8
340
11
1001
ACAD_DSTYLE_DIMJAG
1070
   388
1040
1.5
1001
ACAD_DSTYLE_DIMTALN
1070
   392
1070
     0
  0
DIMSTYLE
105
137
330
A
100
AcDbSymbolTableRecord
100
AcDbDimStyleTableRecord
  2
Annotative
 70
     0
 40
0.0
 41
2.5
 42
0.625
 43
3.75
 44
1.25
 73
     0
 74
     0
 77
     1
 78
     8
140
2.5
141
2.5
143
0.03937007874016
147
0.625
171
     3
172
     1
271
     2
272
     2
274
     3
278
    44
283
     0
284
     8
340
11
1001
AcadAnnotative
1000
AnnotativeData
1002
{
1070
     1
1070
     1
1002
}
1001
ACAD_DSTYLE_DIMJAG
1070
   388
1040
1.5
1001
ACAD_DSTYLE_DIMTALN
1070
   392
1070
     0
  0
DIMSTYLE
105
29A
102
{ACAD_REACTORS
330
2A5
330
2A6
330
3B2
330
3B5
330
3B1
102
}
330
A
100
AcDbSymbolTableRecord
100
AcDbDimStyleTableRecord
  2
D mm 1.1
 70
     0
  4
"
 41
2.399999999999999
 42
0.625
 43
0.09
 44
1.199999999999999
 73
     0
 77
     1
 78
     8
140
20.0
141
0.0
143
0.03937007874016
147
2.0
171
     4
176
     1
177
     1
178
     3
271
     1
272
     1
273
     7
274
     4
278
    44
283
     0
284
     8
289
     1
340
299
371
     9
1001
ACAD_DSTYLE_DIMBREAK
1070
   391
1040
3.75
1001
ACAD_DSTYLE_DIMJAG
1070
   388
1040
1.5
1001
ACAD_DSTYLE_DIMTALN
1070
   392
1070
     0
  0
ENDTAB
  0
TABLE
  2
BLOCK_RECORD
  5
1
330
0
100
AcDbSymbolTable
 70
    22
  0
BLOCK_RECORD
  5
1F
102
{ACAD_XDICTIONARY
360
1B3
102
}
330
1
100
AcDbSymbolTableRecord
100
AcDbBlockTableRecord
  2
*Model_Space
340
22
 70
     0
280
     1
281
     0
  0
BLOCK_RECORD
  5
D6
330
1
100
AcDbSymbolTableRecord
100
AcDbBlockTableRecord
  2
*Paper_Space
340
D7
 70
     0
280
     1
281
     0
  0
BLOCK_RECORD
  5
D2
330
1
100
AcDbSymbolTableRecord
100
AcDbBlockTableRecord
  2
*Paper_Space0
340
D3
 70
     0
280
     1
281
     0
  0
BLOCK_RECORD
  5
1B8
330
1
100
AcDbSymbolTableRecord
100
AcDbBlockTableRecord
  2
*D1
340
0
 70
     0
280
     1
281
     0
  0
BLOCK_RECORD
  5
1ED
330
1
100
AcDbSymbolTableRecord
100
AcDbBlockTableRecord
  2
*D2
340
0
 70
     0
280
     1
281
     0
  0
BLOCK_RECORD
  5
205
330
1
100
AcDbSymbolTableRecord
100
AcDbBlockTableRecord
  2
*D3
340
0
 70
     0
280
     1
281
     0
  0
BLOCK_RECORD
  5
281
330
1
100
AcDbSymbolTableRecord
100
AcDbBlockTableRecord
  2
*D4
340
0
 70
     0
280
     1
281
     0
  0
BLOCK_RECORD
  5
28D
330
1
100
AcDbSymbolTableRecord
100
AcDbBlockTableRecord
  2
*D5
340
0
 70
     0
280
     1
281
     0
  0
BLOCK_RECORD
  5
2A2
102
{ACAD_XDICTIONARY
360
2BA
102
}
330
1
100
AcDbSymbolTableRecord
100
AcDbBlockTableRecord
  2
A$C117a4f10
340
0
 70
     4
280
     1
281
     0
  0
BLOCK_RECORD
  5
2C0
330
1
100
AcDbSymbolTableRecord
100
AcDbBlockTableRecord
  2
*D7
340
0
 70
     0
280
     1
281
     0
  0
BLOCK_RECORD
  5
2CC
330
1
100
AcDbSymbolTableRecord
100
AcDbBlockTableRecord
  2
*D8
340
0
 70
     0
280
     1
281
     0
  0
BLOCK_RECORD
  5
2D8
330
1
100
AcDbSymbolTableRecord
100
AcDbBlockTableRecord
  2
*D9
340
0
 70
     0
280
     1
281
     0
  0
BLOCK_RECORD
  5
315
330
1
100
AcDbSymbolTableRecord
100
AcDbBlockTableRecord
  2
*D11
340
0
 70
     0
280
     1
281
     0
  0
BLOCK_RECORD
  5
321
330
1
100
AcDbSymbolTableRecord
100
AcDbBlockTableRecord
  2
*D12
340
0
 70
     0
280
     1
281
     0
  0
BLOCK_RECORD
  5
33F
330
1
100
AcDbSymbolTableRecord
100
AcDbBlockTableRecord
  2
*D13
340
0
 70
     0
280
     1
281
     0
  0
BLOCK_RECORD
  5
374
330
1
100
AcDbSymbolTableRecord
100
AcDbBlockTableRecord
  2
*D15
340
0
 70
     0
280
     1
281
     0
  0
BLOCK_RECORD
  5
380
330
1
100
AcDbSymbolTableRecord
100
AcDbBlockTableRecord
  2
*D16
340
0
 70
     0
280
     1
281
     0
  0
BLOCK_RECORD
  5
38C
330
1
100
AcDbSymbolTableRecord
100
AcDbBlockTableRecord
  2
*D17
340
0
 70
     0
280
     1
281
     0
  0
BLOCK_RECORD
  5
3C5
330
1
100
AcDbSymbolTableRecord
100
AcDbBlockTableRecord
  2
*D19
340
0
 70
     0
280
     1
281
     0
  0
BLOCK_RECORD
  5
3D1
330
1
100
AcDbSymbolTableRecord
100
AcDbBlockTableRecord
  2
*D20
340
0
 70
     0
280
     1
281
     0
  0
BLOCK_RECORD
  5
3DA
330
1
100
AcDbSymbolTableRecord
100
AcDbBlockTableRecord
  2
*D21
340
0
 70
     0
280
     1
281
     0
  0
ENDTAB
  0
ENDSEC
  0
SECTION
  2
BLOCKS
  0
BLOCK
  5
20
330
1F
100
AcDbEntity
  8
0
100
AcDbBlockBegin
  2
*Model_Space
 70
     0
 10
0.0
 20
0.0
 30
0.0
  3
*Model_Space
  1

  0
ENDBLK
  5
21
330
1F
100
AcDbEntity
  8
0
100
AcDbBlockEnd
  0
BLOCK
  5
D8
330
D6
100
AcDbEntity
 67
     1
  8
0
100
AcDbBlockBegin
  2
*Paper_Space
 70
     0
 10
0.0
 20
0.0
 30
0.0
  3
*Paper_Space
  1

  0
ENDBLK
  5
D9
330
D6
100
AcDbEntity
 67
     1
  8
0
100
AcDbBlockEnd
  0
BLOCK
  5
D4
330
D2
100
AcDbEntity
 67
     1
  8
0
100
AcDbBlockBegin
  2
*Paper_Space0
 70
     0
 10
0.0
 20
0.0
 30
0.0
  3
*Paper_Space0
  1

  0
VIEWPORT
  5
470
102
{ACAD_XDICTIONARY
360
471
102
}
330
D2
100
AcDbEntity
 67
     1
  8
0
100
AcDbViewport
 10
128.5
 20
97.5
 30
0.0
 40
391.129375
 41
222.18
 68
     1
 69
     1
 12
128.5
 22
97.5
 13
0.0
 23
0.0
 14
0.5
 24
0.5
 15
0.5
 25
0.5
 16
0.0
 26
0.0
 36
1.0
 17
0.0
 27
0.0
 37
0.0
 42
50.0
 43
0.0
 44
0.0
 45
222.18
 50
0.0
 51
0.0
 72
  1000
 90
   819232
  1

281
     0
 71
     1
 74
     0
110
0.0
120
0.0
130
0.0
111
1.0
121
0.0
131
0.0
112
0.0
122
1.0
132
0.0
 79
     0
146
0.0
170
     0
 61
     5
348
F5
292
     1
282
     1
141
0.0
142
0.0
 63
   250
421
  3355443
  0
VIEWPORT
  5
474
102
{ACAD_XDICTIONARY
360
475
102
}
330
D2
100
AcDbEntity
 67
     1
  8
0
100
AcDbViewport
 10
128.5
 20
97.5
 30
0.0
 40
205.6
 41
156.0
 68
     2
 69
     2
 12
2771.810347663031
 22
1402.691522989691
 13
0.0
 23
0.0
 14
10.0
 24
10.0
 15
10.0
 25
10.0
 16
0.0
 26
0.0
 36
1.0
 17
0.0
 27
0.0
 37
0.0
 42
50.0
 43
0.0
 44
0.0
 45
1536.055154550767
 50
0.0
 51
0.0
 72
  1000
 90
   557152
  1

281
     0
 71
     1
 74
     0
110
0.0
120
0.0
130
0.0
111
1.0
121
0.0
131
0.0
112
0.0
122
1.0
132
0.0
 79
     0
146
0.0
170
     0
 61
     5
348
F5
292
     1
282
     1
141
0.0
142
0.0
 63
   250
421
  3355443
361
477
  0
ENDBLK
  5
D5
330
D2
100
AcDbEntity
 67
     1
  8
0
100
AcDbBlockEnd
  0
BLOCK
  5
1B9
330
1B8
100
AcDbEntity
  8
0
100
AcDbBlockBegin
  2
*D1
 70
     1
 10
0.0
 20
0.0
 30
0.0
  3
*D1
  1

  0
LINE
  5
1E0
330
1B8
100
AcDbEntity
  8
0
 62
     0
440
 16777216
370
    -2
100
AcDbLine
 10
2405.937695850285
 20
1539.766347067959
 30
0.0
 11
2467.70119900803
 21
1593.384254240175
 31
0.0
  0
MTEXT
  5
1E1
330
1B8
100
AcDbEntity
  8
0
 62
     0
440
 16777216
100
AcDbMText
 10
2417.987668419668
 20
1564.021348727855
 30
0.0
 40
12.5
 41
0.0
 46
0.0
 71
     5
 72
     1
  1
R11,5
 11
0.7551470176532283
 21
0.6555554757070033
 31
0.0
 73
     1
 44
1.0
  0
LINE
  5
1E2
330
1B8
100
AcDbEntity
  8
0
 62
     0
440
 16777216
370
    -2
100
AcDbLine
 10
2485.82472743171
 20
1609.117585657145
 30
0.0
 11
2477.140536728696
 21
1601.578697686512
 31
0.0
  0
SOLID
  5
1E3
330
1B8
100
AcDbEntity
  8
0
 62
     0
440
 16777216
100
AcDbTrace
 10
2466.33545843364
 20
1594.957477193619
 30
0.0
 11
2469.06693958242
 21
1591.811031286731
 31
0.0
 12
2477.140536728696
 22
1601.578697686512
 32
0.0
 13
2477.140536728696
 23
1601.578697686512
 33
0.0
  0
ARC
  5
1E4
330
1B8
100
AcDbEntity
  8
0
 62
     0
440
 16777216
370
    -2
100
AcDbCircle
 10
2485.82472743171
 20
1609.117585657145
 30
0.0
 40
11.50000000000273
100
AcDbArc
 50
105.5695053024643
 51
252.1007930988746
  0
POINT
  5
1E5
330
1B8
100
AcDbEntity
  8
Defpoints
 62
     0
440
 16777216
100
AcDbPoint
 10
2477.140536728696
 20
1601.578697686512
 30
0.0
  0
POINT
  5
1E6
330
1B8
100
AcDbEntity
  8
Defpoints
 62
     0
440
 16777216
100
AcDbPoint
 10
2485.82472743171
 20
1609.117585657145
 30
0.0
  0
ENDBLK
  5
1BA
330
1B8
100
AcDbEntity
  8
0
100
AcDbBlockEnd
  0
BLOCK
  5
1EE
330
1ED
100
AcDbEntity
  8
0
100
AcDbBlockBegin
  2
*D2
 70
     1
 10
0.0
 20
0.0
 30
0.0
  3
*D2
  1

  0
LINE
  5
1FA
330
1ED
100
AcDbEntity
  8
0
 62
     0
440
 16777216
370
    -2
100
AcDbLine
 10
1994.882260469685
 20
1620.617585657145
 30
0.0
 11
2003.683130799638
 21
1620.617585657145
 31
0.0
  0
LINE
  5
1FB
330
1ED
100
AcDbEntity
  8
0
 62
     0
440
 16777216
370
    -2
100
AcDbLine
 10
1994.882260469685
 20
1257.617585657145
 30
0.0
 11
2003.683130799638
 21
1257.617585657145
 31
0.0
  0
LINE
  5
1FC
330
1ED
100
AcDbEntity
  8
0
 62
     0
440
 16777216
370
    -2
100
AcDbLine
 10
1997.433130799638
 20
1608.117585657145
 30
0.0
 11
1997.433130799638
 21
1270.117585657146
 31
0.0
  0
SOLID
  5
1FD
330
1ED
100
AcDbEntity
  8
0
 62
     0
440
 16777216
100
AcDbTrace
 10
1995.349797466305
 20
1608.117585657145
 30
0.0
 11
1999.516464132971
 21
1608.117585657145
 31
0.0
 12
1997.433130799638
 22
1620.617585657145
 32
0.0
 13
1997.433130799638
 23
1620.617585657145
 33
0.0
  0
SOLID
  5
1FE
330
1ED
100
AcDbEntity
  8
0
 62
     0
440
 16777216
100
AcDbTrace
 10
1995.349797466305
 20
1270.117585657146
 30
0.0
 11
1999.516464132971
 21
1270.117585657146
 31
0.0
 12
1997.433130799638
 22
1257.617585657145
 32
0.0
 13
1997.433130799638
 23
1257.617585657145
 33
0.0
  0
MTEXT
  5
1FF
330
1ED
100
AcDbEntity
  8
0
 62
     0
440
 16777216
100
AcDbMText
 10
1988.058130799638
 20
1439.117585657145
 30
0.0
 40
12.5
 41
0.0
 46
0.0
 71
     5
 72
     1
  1
363
 11
0.0000000000000001
 21
1.0
 31
0.0
 73
     1
 44
1.0
  0
POINT
  5
200
330
1ED
100
AcDbEntity
  8
Defpoints
 62
     0
440
 16777216
100
AcDbPoint
 10
1991.757260469685
 20
1620.617585657145
 30
0.0
  0
POINT
  5
201
330
1ED
100
AcDbEntity
  8
Defpoints
 62
     0
440
 16777216
100
AcDbPoint
 10
1991.757260469685
 20
1257.617585657145
 30
0.0
  0
POINT
  5
202
330
1ED
100
AcDbEntity
  8
Defpoints
 62
     0
440
 16777216
100
AcDbPoint
 10
1997.433130799638
 20
1257.617585657145
 30
0.0
  0
ENDBLK
  5
1EF
330
1ED
100
AcDbEntity
  8
0
100
AcDbBlockEnd
  0
BLOCK
  5
206
330
205
100
AcDbEntity
  8
0
100
AcDbBlockBegin
  2
*D3
 70
     1
 10
0.0
 20
0.0
 30
0.0
  3
*D3
  1

  0
LINE
  5
212
330
205
100
AcDbEntity
  8
0
 62
     0
440
 16777216
370
    -2
100
AcDbLine
 10
1934.324727431707
 20
1318.709759469655
 30
0.0
 11
1934.324727431707
 21
1308.292440534067
 31
0.0
  0
LINE
  5
213
330
205
100
AcDbEntity
  8
0
 62
     0
440
 16777216
370
    -2
100
AcDbLine
 10
2497.324727431708
 20
1318.709759469654
 30
0.0
 11
2497.324727431708
 21
1308.292440534067
 31
0.0
  0
LINE
  5
214
330
205
100
AcDbEntity
  8
0
 62
     0
440
 16777216
370
    -2
100
AcDbLine
 10
1946.824727431707
 20
1314.542440534067
 30
0.0
 11
2484.824727431707
 21
1314.542440534067
 31
0.0
  0
SOLID
  5
215
330
205
100
AcDbEntity
  8
0
 62
     0
440
 16777216
100
AcDbTrace
 10
1946.824727431707
 20
1316.6257738674
 30
0.0
 11
1946.824727431707
 21
1312.459107200734
 31
0.0
 12
1934.324727431707
 22
1314.542440534067
 32
0.0
 13
1934.324727431707
 23
1314.542440534067
 33
0.0
  0
SOLID
  5
216
330
205
100
AcDbEntity
  8
0
 62
     0
440
 16777216
100
AcDbTrace
 10
2484.824727431707
 20
1316.6257738674
 30
0.0
 11
2484.824727431707
 21
1312.459107200734
 31
0.0
 12
2497.324727431708
 22
1314.542440534067
 32
0.0
 13
2497.324727431708
 23
1314.542440534067
 33
0.0
  0
MTEXT
  5
217
330
205
100
AcDbEntity
  8
0
 62
     0
440
 16777216
100
AcDbMText
 10
2215.824727431707
 20
1323.917440534067
 30
0.0
 40
12.5
 41
0.0
 46
0.0
 71
     5
 72
     1
  1
563
 73
     1
 44
1.0
  0
POINT
  5
218
330
205
100
AcDbEntity
  8
Defpoints
 62
     0
440
 16777216
100
AcDbPoint
 10
1934.324727431707
 20
1321.834759469655
 30
0.0
  0
POINT
  5
219
330
205
100
AcDbEntity
  8
Defpoints
 62
     0
440
 16777216
100
AcDbPoint
 10
2497.324727431708
 20
1321.834759469654
 30
0.0
  0
POINT
  5
21A
330
205
100
AcDbEntity
  8
Defpoints
 62
     0
440
 16777216
100
AcDbPoint
 10
2497.324727431708
 20
1314.542440534067
 30
0.0
  0
ENDBLK
  5
207
330
205
100
AcDbEntity
  8
0
100
AcDbBlockEnd
  0
BLOCK
  5
282
330
281
100
AcDbEntity
  8
0
100
AcDbBlockBegin
  2
*D4
 70
     1
 10
0.0
 20
0.0
 30
0.0
  3
*D4
  1

  0
LINE
  5
283
330
281
100
AcDbEntity
  8
0
 62
     1
440
 16777216
370
    -2
100
AcDbLine
 10
903.5119282943032
 20
1302.739972928565
 30
0.0
 11
903.5119282943032
 21
1342.767480715425
 31
0.0
  0
LINE
  5
284
330
281
100
AcDbEntity
  8
0
 62
     1
440
 16777216
370
    -2
100
AcDbLine
 10
1640.052957803489
 20
1302.739972928565
 30
0.0
 11
1640.052957803489
 21
1342.767480715425
 31
0.0
  0
LINE
  5
285
330
281
100
AcDbEntity
  8
0
 62
     1
440
 16777216
370
     9
100
AcDbLine
 10
905.9119282943033
 20
1341.567480715425
 30
0.0
 11
1637.652957803489
 21
1341.567480715425
 31
0.0
  0
SOLID
  5
286
330
281
100
AcDbEntity
  8
0
 62
     1
440
 16777216
100
AcDbTrace
 10
905.9119282943033
 20
1341.967480715425
 30
0.0
 11
905.9119282943033
 21
1341.167480715425
 31
0.0
 12
903.5119282943032
 22
1341.567480715425
 32
0.0
 13
903.5119282943032
 23
1341.567480715425
 33
0.0
  0
SOLID
  5
287
330
281
100
AcDbEntity
  8
0
 62
     1
440
 16777216
100
AcDbTrace
 10
1637.652957803489
 20
1341.967480715425
 30
0.0
 11
1637.652957803489
 21
1341.167480715425
 31
0.0
 12
1640.052957803489
 22
1341.567480715425
 32
0.0
 13
1640.052957803489
 23
1341.567480715425
 33
0.0
  0
MTEXT
  5
288
330
281
100
AcDbEntity
  8
0
 62
     3
440
 16777216
100
AcDbMText
 10
1271.782443048896
 20
1353.78576175226
 30
0.0
 40
20.0
 41
0.0
 46
0.0
 71
     5
 72
     1
  1
736.5 mm
  7
Arial
 73
     1
 44
1.0
  0
POINT
  5
289
330
281
100
AcDbEntity
  8
Defpoints
 62
     0
440
 16777216
100
AcDbPoint
 10
903.5119282943032
 20
1302.114972928565
 30
0.0
  0
POINT
  5
28A
330
281
100
AcDbEntity
  8
Defpoints
 62
     0
440
 16777216
100
AcDbPoint
 10
1640.052957803489
 20
1302.114972928565
 30
0.0
  0
POINT
  5
28B
330
281
100
AcDbEntity
  8
Defpoints
 62
     0
440
 16777216
100
AcDbPoint
 10
1640.052957803489
 20
1341.567480715425
 30
0.0
  0
ENDBLK
  5
28C
330
281
100
AcDbEntity
  8
0
100
AcDbBlockEnd
  0
BLOCK
  5
28E
330
28D
100
AcDbEntity
  8
0
100
AcDbBlockBegin
  2
*D5
 70
     1
 10
0.0
 20
0.0
 30
0.0
  3
*D5
  1

  0
LINE
  5
28F
330
28D
100
AcDbEntity
  8
0
 62
     1
440
 16777216
370
    -2
100
AcDbLine
 10
891.8692979164685
 20
1292.614972928565
 30
0.0
 11
864.8344080251158
 21
1292.614972928565
 31
0.0
  0
LINE
  5
290
330
28D
100
AcDbEntity
  8
0
 62
     1
440
 16777216
370
    -2
100
AcDbLine
 10
891.8692979164685
 20
886.1948154255195
 30
0.0
 11
864.834408025116
 21
886.1948154255195
 31
0.0
  0
LINE
  5
291
330
28D
100
AcDbEntity
  8
0
 62
     1
440
 16777216
370
     9
100
AcDbLine
 10
866.0344080251158
 20
1290.214972928565
 30
0.0
 11
866.034408025116
 21
888.5948154255196
 31
0.0
  0
SOLID
  5
292
330
28D
100
AcDbEntity
  8
0
 62
     1
440
 16777216
100
AcDbTrace
 10
865.6344080251157
 20
1290.214972928565
 30
0.0
 11
866.4344080251158
 21
1290.214972928565
 31
0.0
 12
866.0344080251158
 22
1292.614972928565
 32
0.0
 13
866.0344080251158
 23
1292.614972928565
 33
0.0
  0
SOLID
  5
293
330
28D
100
AcDbEntity
  8
0
 62
     1
440
 16777216
100
AcDbTrace
 10
865.6344080251161
 20
888.5948154255196
 30
0.0
 11
866.434408025116
 21
888.5948154255196
 31
0.0
 12
866.034408025116
 22
886.1948154255195
 32
0.0
 13
866.034408025116
 23
886.1948154255195
 33
0.0
  0
MTEXT
  5
294
330
28D
100
AcDbEntity
  8
0
 62
     3
440
 16777216
370
    18
100
AcDbMText
 10
853.8229482706823
 20
1089.404894177042
 30
0.0
 40
20.0
 41
0.0
 46
0.0
 71
     5
 72
     1
  1
406.4 mm
  7
Arial
 11
0.0000000000000001
 21
1.0
 31
0.0
 73
     1
 44
1.0
  0
POINT
  5
295
330
28D
100
AcDbEntity
  8
Defpoints
 62
     0
440
 16777216
100
AcDbPoint
 10
892.4942979164685
 20
1292.614972928565
 30
0.0
  0
POINT
  5
296
330
28D
100
AcDbEntity
  8
Defpoints
 62
     0
440
 16777216
100
AcDbPoint
 10
892.4942979164685
 20
886.1948154255195
 30
0.0
  0
POINT
  5
297
330
28D
100
AcDbEntity
  8
Defpoints
 62
     0
440
 16777216
100
AcDbPoint
 10
866.034408025116
 20
886.1948154255195
 30
0.0
  0
ENDBLK
  5
298
330
28D
100
AcDbEntity
  8
0
100
AcDbBlockEnd
  0
BLOCK
  5
2BC
330
2A2
100
AcDbEntity
  8
0
100
AcDbBlockBegin
  2
A$C117a4f10
 70
     0
 10
0.0
 20
0.0
 30
0.0
  3
A$C117a4f10
  1

  0
LWPOLYLINE
  5
2A3
330
2A2
100
AcDbEntity
  8
0
 62
     6
 48
2.0
370
    18
100
AcDbPolyline
 90
        4
 70
   129
 43
0.0
 10
59.90043977805488
 20
332.0353776781651
 10
59.90043977805488
 20
738.455535181211
 10
796.4414692872407
 20
738.455535181211
 10
796.4414692872407
 20
332.0353776781651
  0
LWPOLYLINE
  5
2A4
330
2A2
100
AcDbEntity
  8
0
  6
ACAD_ISO02W100
 62
     2
 48
2.0
370
    18
100
AcDbPolyline
 90
        4
 70
   129
 43
0.0
 10
63.07543977805483
 20
335.210377678165
 10
63.07543977805483
 20
735.2805351812111
 10
793.2664692872407
 20
735.2805351812111
 10
793.2664692872407
 20
335.2103776781648
  0
DIMENSION
  5
2A5
330
2A2
100
AcDbEntity
  8
0
 62
     2
100
AcDbDimension
280
     0
  2
*D4
 10
796.4414692872407
 20
787.408042968071
 30
0.0
 11
428.1709545326476
 21
799.626324004906
 31
0.0
 12
-843.6114885162483
 22
-554.159437747354
 32
0.0
  1
736.5 mm
 71
     5
 42
736.5410295091858
 73
     0
 74
     0
 75
     0
  3
D mm 1.1
100
AcDbAlignedDimension
 13
59.90043977805488
 23
747.955535181211
 33
0.0
 14
796.4414692872407
 24
747.955535181211
 34
0.0
100
AcDbRotatedDimension
  0
DIMENSION
  5
2A6
330
2A2
100
AcDbEntity
  8
0
 62
     2
370
    18
100
AcDbDimension
280
     0
  2
*D5
 10
22.42291950886761
 20
332.0353776781656
 30
0.0
 11
10.2114597544338
 21
535.245456429688
 31
0.0
 12
-843.6114885162483
 22
-554.159437747354
 32
0.0
  1
406.4 mm
 71
     5
 42
406.4201575030457
 73
     0
 74
     0
 75
     0
  3
D mm 1.1
100
AcDbAlignedDimension
 13
48.88280940021946
 23
738.455535181211
 33
0.0
 14
48.88280940021946
 24
332.0353776781651
 34
0.0
 50
90.0
100
AcDbRotatedDimension
  0
LWPOLYLINE
  5
2A7
330
2A2
100
AcDbEntity
  8
0
 48
0.01
100
AcDbPolyline
 90
        2
 70
     1
 43
0.0
 10
99.35171731103764
 20
181.2934579850818
 10
89.37677537370143
 20
181.2934579850818
  0
LWPOLYLINE
  5
2A8
330
2A2
100
AcDbEntity
  8
0
 48
0.01
100
AcDbPolyline
 90
        2
 70
     1
 43
0.0
 10
99.35171731103764
 20
181.2934579850818
 10
89.37677537370143
 20
181.2934579850818
  0
LWPOLYLINE
  5
2A9
330
2A2
100
AcDbEntity
  8
0
 48
0.01
100
AcDbPolyline
 90
        2
 70
     0
 43
0.0
 10
89.37677537370143
 20
181.2934579850818
 10
99.35171731103764
 20
181.2934579850818
  0
HATCH
  5
2AA
330
2A2
100
AcDbEntity
  8
0
 48
0.01
100
AcDbHatch
 10
0.0
 20
0.0
 30
0.0
210
0.0
220
0.0
230
1.0
  2
SOLID
 70
     1
 71
     1
 91
        4
 92
        1
 93
       18
 72
     2
 10
81.48436467084378
 20
210.6798195193452
 40
7.435636738141084
 50
269.7916686807968
 51
320.9989335064348
 73
     1
 72
     2
 10
78.67063066234755
 20
212.9816741284394
 40
11.07093788473757
 50
320.9054195612397
 51
359.1320713946958
 73
     1
 72
     1
 10
89.74029835660587
 20
212.8139756299054
 11
100.381541258987
 21
212.8139756299054
 72
     2
 10
39.88996936404635
 20
220.4052664856466
 40
60.96603945785911
 50
7.152847449077169
 51
14.74728455778084
 73
     0
 72
     2
 10
84.78760557852671
 20
208.8160237102866
 40
14.59898874689572
 50
15.61661756341636
 51
45.01773962628585
 73
     0
 72
     2
 10
87.25189157931287
 20
190.0739199377693
 40
11.51245466931467
 50
313.0278119653445
 51
349.7816523316972
 73
     0
 72
     2
 10
72.11031061129154
 20
185.6690363583474
 40
27.24524081107614
 50
346.3119490089252
 51
360.9612354025461
 73
     0
 72
     1
 10
99.35171731103764
 20
185.2119719508987
 11
99.35171731103764
 21
181.2934579850818
 72
     1
 10
99.35171731103764
 20
181.2934579850818
 11
89.37677537370143
 21
181.2934579850818
 72
     1
 10
89.37677537370143
 20
181.2934579850818
 11
89.37677537370143
 21
185.2119719508987
 72
     2
 10
79.22702792208236
 20
185.1731496399046
 40
10.14982169811267
 50
0.2191526177343998
 51
32.34155472375606
 73
     1
 72
     2
 10
84.59571975441646
 20
187.9552085625395
 40
4.158486993403801
 50
39.54679752994696
 51
90.8147398629422
 73
     1
 72
     1
 10
84.53658850650425
 20
192.1132751288452
 11
81.45732825366691
 21
192.1132751288452
 72
     1
 10
81.45732825366691
 20
192.1132751288452
 11
81.45732825366691
 21
181.2934579850818
 72
     1
 10
81.45732825366691
 20
181.2934579850818
 11
70.63226665721629
 21
181.2934579850818
 72
     1
 10
70.63226665721629
 20
181.2934579850818
 11
70.63226665721629
 21
217.5771915533444
 72
     1
 10
70.63226665721629
 20
217.5771915533444
 11
81.45732825366691
 21
217.5771915533444
 72
     1
 10
81.45732825366691
 20
217.5771915533444
 11
81.45732825366691
 21
203.2442319343766
 97
        1
330
2AF
 92
        1
 93
       13
 72
     1
 10
164.9073704105145
 20
181.2934579850818
 11
154.3587119062875
 21
181.2934579850818
 72
     1
 10
154.3587119062875
 20
181.2934579850818
 11
164.9073704105145
 21
181.2934579850818
 72
     1
 10
164.9073704105145
 20
181.2934579850818
 11
154.3587119062875
 21
181.2934579850818
 72
     1
 10
154.3587119062875
 20
181.2934579850818
 11
164.9073704105145
 21
181.2934579850818
 72
     1
 10
164.9073704105145
 20
181.2934579850818
 11
154.3587119062875
 21
181.2934579850818
 72
     1
 10
154.3587119062875
 20
181.2934579850818
 11
154.3587119062875
 21
201.4286765301367
 72
     2
 10
167.6635981485808
 20
199.0992636987959
 40
13.50726330753865
 50
189.9306651113145
 51
241.3472543704108
 73
     0
 72
     2
 10
170.6636714161031
 20
193.9284904008234
 40
19.48397167083973
 50
240.8964322887993
 51
271.180634879444
 73
     0
 72
     1
 10
171.0651290605305
 20
213.4083257140343
 11
173.6368063949556
 21
213.4083257140343
 72
     1
 10
173.6368063949556
 20
213.4083257140343
 11
173.6368063949556
 21
203.1982315648903
 72
     1
 10
173.6368063949556
 20
203.1982315648903
 11
169.7139269432135
 21
203.1982315648903
 72
     2
 10
170.1681850804604
 20
197.8798772628652
 40
5.337718888919122
 50
94.881971999867
 51
170.2622711154042
 73
     1
 72
     1
 10
164.9073704105145
 20
198.7826906132358
 11
164.9073704105145
 21
181.2934579850818
 97
        1
330
2AC
 92
        1
 93
       24
 72
     2
 10
188.5939964279274
 20
196.7189442604602
 40
15.42595119482962
 50
89.55516228348374
 51
178.5796567088728
 73
     0
 72
     2
 10
189.8244884162926
 20
196.7494539969754
 40
16.65682136566549
 50
178.5796567088554
 51
269.9999999999585
 73
     0
 72
     1
 10
189.8244884162806
 20
213.4062753626408
 11
206.1710842591746
 21
213.4062753626408
 72
     1
 10
206.1710842591746
 20
213.4062753626408
 11
206.1710842591746
 21
191.3542656644075
 72
     1
 10
206.1710842591746
 20
191.3542656644075
 11
208.8422546351186
 21
191.3542656644075
 72
     1
 10
208.8422546351186
 20
191.3542656644075
 11
208.8422546351186
 21
202.0547403322963
 72
     2
 10
223.1120748678271
 20
199.1258836396279
 40
14.56729113459349
 50
191.5987796846284
 51
348.4012203153716
 73
     0
 72
     1
 10
237.3818951005357
 20
202.0547403322963
 11
237.3818951005357
 21
181.2934579850818
 72
     1
 10
237.3818951005357
 20
181.2934579850818
 11
226.5632329845626
 21
181.2934579850818
 72
     1
 10
226.5632329845626
 20
181.2934579850818
 11
226.5632329845626
 21
200.2713215287595
 72
     2
 10
222.9874211580167
 20
199.2852475159453
 40
3.709281895140015
 50
15.41684788794986
 51
164.5831521120511
 73
     1
 72
     1
 10
219.4116093314705
 20
200.2713215287595
 11
219.4116093314705
 21
181.2934579850818
 72
     1
 10
219.4116093314705
 20
181.2934579850818
 11
206.1710842591746
 21
181.2934579850818
 72
     1
 10
206.1710842591746
 20
181.2934579850818
 11
195.1638417083376
 21
181.2934579850818
 72
     1
 10
195.1638417083376
 20
181.2934579850818
 11
195.1638417083376
 21
202.9511180480919
 72
     1
 10
195.1638417083376
 20
202.9511180480919
 11
189.6297888609587
 21
202.9511180480919
 72
     2
 10
190.2886294859264
 20
196.6001137838427
 40
6.385086227578958
 50
95.92256612287622
 51
227.9508210801613
 73
     1
 72
     2
 10
190.7572779035473
 20
199.7220663371559
 40
9.184150253965347
 50
238.8908443430258
 51
292.370172477335
 73
     1
 72
     1
 10
194.2526646181305
 20
191.2290758389317
 11
194.2526646181305
 21
181.2934579850818
 72
     1
 10
194.2526646181305
 20
181.2934579850818
 11
188.7137605017366
 21
181.2934579850818
 72
     1
 10
188.7137605017366
 20
181.2934579850818
 11
194.2526646181305
 21
181.2934579850818
 72
     1
 10
194.2526646181305
 20
181.2934579850818
 11
188.7137605017366
 21
181.2934579850818
 72
     1
 10
188.7137605017366
 20
181.2934579850818
 11
194.2526646181305
 21
181.2934579850818
 72
     1
 10
194.2526646181305
 20
181.2934579850818
 11
188.7137605017366
 21
181.2934579850818
 97
        1
330
2AB
 92
       33
 93
       19
 72
     2
 10
115.7554810074218
 20
196.4551225831784
 40
16.35933514081758
 50
89.56013260017238
 51
220.1649815580659
 73
     1
 72
     2
 10
116.2811673544671
 20
201.6706111804128
 40
20.45270418759637
 50
230.4352990380099
 51
282.0112670967897
 73
     1
 72
     1
 10
120.5374576737688
 20
181.6656842546992
 11
120.5374576737688
 21
191.2027946746435
 72
     2
 10
117.1231588062908
 20
198.7663871110459
 40
8.298515969766196
 50
65.70499677464998
 51
133.5351328222408
 73
     0
 72
     2
 10
116.2365588284569
 20
196.4357380829432
 40
6.074967132317022
 50
142.6523419819315
 51
269.1039790738904
 73
     0
 72
     1
 10
116.1415592341889
 20
202.5099623738155
 11
121.6756120815682
 21
202.5099623738155
 72
     1
 10
121.6756120815682
 20
202.5099623738155
 11
121.6756120815682
 21
181.2934579850818
 72
     1
 10
121.6756120815682
 20
181.2934579850818
 11
145.6359477206335
 21
181.2934579850818
 72
     1
 10
145.6359477206335
 20
181.2934579850818
 11
145.6359477206335
 21
198.3043726374792
 72
     2
 10
150.8037841293495
 20
197.3453556319733
 40
5.256067614110365
 50
190.513024304598
 51
267.3007158678424
 73
     0
 72
     1
 10
150.5562550371029
 20
202.5955914469242
 11
154.4608312753247
 21
202.5955914469242
 72
     1
 10
154.4608312753247
 20
202.5955914469242
 11
154.4608312753247
 21
213.1943401588853
 72
     1
 10
154.4608312753247
 20
213.1943401588853
 11
151.8891539408986
 21
213.1943401588853
 72
     2
 10
151.6083793763246
 20
188.5943698065265
 40
24.60157262642054
 50
89.34607648684018
 51
115.1753773784175
 73
     1
 72
     2
 10
146.6370170278462
 20
199.5254986149882
 40
12.59492606554582
 50
115.8616959887337
 51
169.2203747648596
 73
     1
 72
     1
 10
134.2643432610368
 20
201.881152761223
 11
134.2643432610368
 21
191.3646697923331
 72
     1
 10
134.2643432610368
 20
191.3646697923331
 11
132.4850153747773
 21
191.3646697923331
 72
     1
 10
132.4850153747773
 20
191.3646697923331
 11
132.4850153747773
 21
212.8139756299054
 72
     1
 10
132.4850153747773
 20
212.8139756299054
 11
115.6298894265671
 21
212.8139756299054
 97
        1
330
2AE
 75
     1
 76
     1
 98
        1
 10
-13418.35683144022
 20
-10175.24269140949
450
        0
451
        0
460
0.0
461
0.0
452
        0
462
0.0
453
        2
463
0.0
 63
     5
421
      255
463
1.0
 63
     2
421
 16776960
470
LINEAR
1001
GradientColor1ACI
1070
     5
1001
GradientColor2ACI
1070
     2
1001
ACAD
1010
0.0
1020
0.0
1030
0.0
  0
LWPOLYLINE
  5
2AB
102
{ACAD_REACTORS
330
2AA
102
}
330
2A2
100
AcDbEntity
  8
0
 48
0.01
100
AcDbPolyline
 90
       24
 70
     1
 43
0.0
 10
188.7137605017366
 20
181.2934579850818
 42
-0.4092355721717349
 10
173.1727848266546
 20
196.336579233244
 42
-0.4214930677972201
 10
189.8244884162806
 20
213.4062753626408
 10
206.1710842591746
 20
213.4062753626408
 10
206.1710842591746
 20
191.3542656644075
 10
208.8422546351186
 20
191.3542656644075
 10
208.8422546351186
 20
202.0547403322963
 42
-0.8155978317966516
 10
237.3818951005357
 20
202.0547403322963
 10
237.3818951005357
 20
181.2934579850818
 10
226.5632329845626
 20
181.2934579850818
 10
226.5632329845626
 20
200.2713215287595
 42
0.7615635314222832
 10
219.4116093314705
 20
200.2713215287595
 10
219.4116093314705
 20
181.2934579850818
 10
206.1710842591746
 20
181.2934579850818
 10
195.1638417083376
 20
181.2934579850818
 10
195.1638417083376
 20
202.9511180480919
 10
189.6297888609587
 20
202.9511180480919
 42
0.6495828859663999
 10
186.0121016083855
 20
191.8587389361604
 42
0.2376772601789094
 10
194.2526646181305
 20
191.2290758389317
 10
194.2526646181305
 20
181.2934579850818
 10
188.7137605017366
 20
181.2934579850818
 10
194.2526646181305
 20
181.2934579850818
 10
188.7137605017366
 20
181.2934579850818
 10
194.2526646181305
 20
181.2934579850818
  0
LWPOLYLINE
  5
2AC
102
{ACAD_REACTORS
330
2AA
102
}
330
2A2
100
AcDbEntity
  8
0
 48
0.01
100
AcDbPolyline
 90
       13
 70
     1
 43
0.0
 10
164.9073704105145
 20
181.2934579850818
 10
154.3587119062875
 20
181.2934579850818
 10
164.9073704105145
 20
181.2934579850818
 10
154.3587119062875
 20
181.2934579850818
 10
164.9073704105145
 20
181.2934579850818
 10
154.3587119062875
 20
181.2934579850818
 10
154.3587119062875
 20
201.4286765301367
 42
-0.2281884693300767
 10
161.1868665696645
 20
210.9524535696218
 42
-0.1329142652906163
 10
171.0651290605305
 20
213.4083257140343
 10
173.6368063949556
 20
213.4083257140343
 10
173.6368063949556
 20
203.1982315648903
 10
169.7139269432135
 20
203.1982315648903
 42
0.3413058790982946
 10
164.9073704105145
 20
198.7826906132358
  0
HATCH
  5
2AD
330
2A2
100
AcDbEntity
  8
0
 48
0.01
100
AcDbHatch
 10
0.0
 20
0.0
 30
0.0
210
0.0
220
0.0
230
1.0
  2
SOLID
 70
     1
 71
     0
 91
        1
 92
        7
 72
     1
 73
     1
 93
       18
 10
132.4850153747773
 20
212.8139756298774
 42
0.0
 10
115.6298894265671
 20
212.8139756298774
 42
0.6353853386189156
 10
103.2538344471776
 20
185.9035028244442
 42
0.2289202173365143
 10
120.5374576737688
 20
181.6656842546713
 42
0.0
 10
120.5374576737688
 20
191.2027946746168
 42
-0.3049204153943832
 10
111.4071473646591
 20
192.7503601413642
 42
-0.6155147312710259
 10
116.1415592341889
 20
202.5099623738021
 42
0.0
 10
121.6756120815682
 20
202.5099623738021
 42
0.0
 10
121.6756120815682
 20
181.2934579850541
 42
0.0
 10
145.6359477206335
 20
181.2934579850541
 42
0.0
 10
145.6359477206335
 20
196.3863386264157
 42
-0.454745117684773
 10
150.5562550371029
 20
202.5955914469106
 42
0.0
 10
154.4608312753247
 20
202.5955914469106
 42
0.0
 10
154.4608312753247
 20
213.0300178203581
 42
0.1398003542089238
 10
141.1431063932977
 20
210.8590377151922
 42
0.2371211591682391
 10
134.2643432610368
 20
201.8811527611949
 42
0.0
 10
134.2643432610368
 20
191.3646697922917
 42
0.0
 10
132.4850153747773
 20
191.3646697922917
 42
0.0
 97
        0
 75
     1
 76
     1
 47
0.1121286295065503
 98
        1
 10
127.7634374373691
 20
200.6408152763287
450
        0
451
        0
460
0.0
461
0.0
452
        0
462
0.0
453
        2
463
0.0
 63
     5
421
      255
463
1.0
 63
     2
421
 16776960
470
LINEAR
1001
GradientColor1ACI
1070
     5
1001
GradientColor2ACI
1070
     2
1001
ACAD
1010
0.0
1020
0.0
1030
0.0
  0
LWPOLYLINE
  5
2AE
102
{ACAD_REACTORS
330
2AA
102
}
330
2A2
100
AcDbEntity
  8
0
 48
0.01
100
AcDbPolyline
 90
       20
 70
     0
 43
0.0
 10
115.8810725882763
 20
212.8139756299054
 42
0.6407867916736249
 10
103.2538344471776
 20
185.9035028244722
 42
0.2289202173365143
 10
120.5374576737688
 20
181.6656842546992
 10
120.5374576737688
 20
191.2027946746435
 42
-0.3049204153943832
 10
111.4071473646591
 20
192.7503601413922
 42
-0.6155147312710236
 10
116.1415592341889
 20
202.5099623738155
 10
121.6756120815682
 20
202.5099623738155
 10
121.6756120815682
 20
181.2934579850818
 10
145.6359477206335
 20
181.2934579850818
 10
145.6359477206335
 20
198.3043726374792
 42
-0.3481766266298435
 10
150.5562550371029
 20
202.5955914469242
 10
154.4608312753247
 20
202.5955914469242
 10
154.4608312753247
 20
213.1943401588853
 10
151.8891539408986
 20
213.1943401588853
 42
0.1131811881261881
 10
141.1431063932977
 20
210.8590377152057
 42
0.2371211591682408
 10
134.2643432610368
 20
201.881152761223
 10
134.2643432610368
 20
191.3646697923331
 10
132.4850153747773
 20
191.3646697923331
 10
132.4850153747773
 20
212.8139756299054
 10
115.6298894265671
 20
212.8139756299054
  0
LWPOLYLINE
  5
2AF
102
{ACAD_REACTORS
330
2AA
102
}
330
2A2
100
AcDbEntity
  8
0
 48
0.01
100
AcDbPolyline
 90
       18
 70
     1
 43
0.0
 10
81.45732825366691
 20
203.2442319343766
 42
0.2272277610263213
 10
87.26285263026193
 20
206.0003141390242
 42
0.1683594271327844
 10
89.74029835660587
 20
212.8139756299054
 10
100.381541258987
 20
212.8139756299054
 42
-0.0331491172199263
 10
98.84766581112479
 20
204.8859882539958
 42
-0.128995016605472
 10
95.10745285710232
 20
198.4897840956512
 42
-0.1617579719816668
 10
98.581745480015
 20
192.1162282156183
 42
-0.0640067649695244
 10
99.35171731103764
 20
185.2119719508987
 10
99.35171731103764
 20
181.2934579850818
 10
89.37677537370143
 20
181.2934579850818
 10
89.37677537370143
 20
185.2119719508987
 42
0.1410855045782453
 10
87.80234901844119
 20
190.6029515329595
 42
0.2275062033354094
 10
84.53658850650425
 20
192.1132751288452
 10
81.45732825366691
 20
192.1132751288452
 10
81.45732825366691
 20
181.2934579850818
 10
70.63226665721629
 20
181.2934579850818
 10
70.63226665721629
 20
217.5771915533444
 10
81.45732825366691
 20
217.5771915533444
  0
MTEXT
  5
2B0
330
2A2
100
AcDbEntity
  8
0
 48
0.01
100
AcDbMText
 10
235.1235907555696
 20
216.2055929687048
 30
0.0
 40
2.717548651889444
 41
3.15481405195588
 46
0.0
 71
     1
 72
     5
  1
R
 73
     1
 44
1.0
101
Embedded Object
 70
     1
 10
1.0
 20
0.0
 30
0.0
 11
235.1235907555696
 21
216.2055929687048
 31
0.0
 40
3.15481405195588
 41
0.0
 42
1.811699101259629
 43
2.717548651889444
 71
     2
 72
     1
 44
3.15481405195588
 45
27.17548651889447
 73
     0
 74
     0
 46
0.0
  0
CIRCLE
  5
2B1
330
2A2
100
AcDbEntity
  8
0
 48
0.01
100
AcDbCircle
 10
236.0360643738687
 20
214.8115313969508
 30
0.0
 40
2.656783313569305
  0
MTEXT
  5
2B2
330
2A2
100
AcDbEntity
  8
0
100
AcDbMText
 10
70.74564154215829
 20
173.3017794265768
 30
0.0
 40
11.40542061382427
 41
233.6918793793638
 46
0.0
 71
     1
 72
     5
  1
{\fArial|b0|i0|c0|p34;INSPIRED FOR LIVING}
 73
     1
 44
1.0
101
Embedded Object
 70
     1
 10
1.0
 20
0.0
 30
0.0
 11
70.74564154215829
 21
173.3017794265768
 31
0.0
 40
233.6918793793638
 41
0.0
 42
167.5025278414983
 43
11.8021985478659
 71
     2
 72
     1
 44
233.6918793793638
 45
1.425677576728034
 73
     0
 74
     0
 46
0.0
  0
MTEXT
  5
2B3
330
2A2
100
AcDbEntity
  8
0
100
AcDbMText
 10
69.90268216945515
 20
298.5456421636992
 30
0.0
 40
20.0
 41
455.5328356415318
 46
0.0
 71
     1
 72
     5
  1
Undermount cut-out
 73
     1
 44
1.0
101
Embedded Object
 70
     1
 10
1.0
 20
0.0
 30
0.0
 11
69.90268216945515
 21
298.5456421636992
 31
0.0
 40
455.5328356415318
 41
0.0
 42
353.3333333333333
 43
20.0
 71
     2
 72
     1
 44
455.5328356415318
 45
12.5
 73
     0
 74
     0
 46
0.0
  0
MTEXT
  5
2B4
330
2A2
100
AcDbEntity
  8
0
  6
ByBlock
370
    -3
100
AcDbMText
 10
71.51499378294397
 20
137.5
 30
0.0
 40
15.0
 41
398.975544590488
 46
0.0
 71
     1
 72
     5
  1
UUMSB3021\P30" x 18" Undermount Single Bowl Stainless Steel Kitchen Sink \P\P{\H0.8x;www.karran.com\PCustomer Service: (866) 452-7726}
 73
     1
 44
1.0
101
Embedded Object
 70
     1
 10
1.0
 20
0.0
 30
0.0
 11
71.51499378294397
 21
137.5
 31
0.0
 40
398.975544590488
 41
0.0
 42
372.5
 43
158.0
 71
     2
 72
     1
 44
398.975544590488
 45
12.5
 73
     0
 74
     0
 46
0.0
  0
MTEXT
  5
2B5
330
2A2
100
AcDbEntity
  8
0
  6
ByBlock
370
    -3
100
AcDbMText
 10
501.2119911906396
 20
295.9251591845996
 30
0.0
 40
12.0
 41
305.7223420132034
 46
0.0
 71
     1
 72
     5
  1
Failure to use the proper template will void your warranty and may prevent proper installation. If you have any questions, please contact our customer care team prior to making any cuts in the countertop.
 73
     1
 44
1.0
101
Embedded Object
 70
     1
 10
1.0
 20
0.0
 30
0.0
 11
501.2119911906396
 21
295.9251591845996
 31
0.0
 40
305.7223420132034
 41
0.0
 42
296.0
 43
156.0
 71
     2
 72
     1
 44
305.7223420132034
 45
12.5
 73
     0
 74
     0
 46
0.0
  0
MULTILEADER
  5
2B6
330
2A2
100
AcDbEntity
  8
0
160
               464
310
D0010000180000000C00000016000000000000C00C00000033000000000000000C00000013000000993A00000C00000033000000000000000C00000010000000000000000C00000016000000000000C00C00000017000000050000000C00000012000000FF7F00000C00000013000000010000000C00000014000000010000
310
00540000000700000003000000B503596D19437C40A42B2FE89060754000000000000000000A59AEC26E287C40A42B2FE890C0744000000000000000005FAE0318C40D7C40A42B2FE89060754000000000000000000C00000014000000010000000C00000013000000891300003C00000006000000020000000A59AEC26E28
310
7C40A42B2FE89060754000000000000000000A59AEC26E287C4008A4A542C613774000000000000000000C00000013000000112700003C00000006000000020000000A59AEC26E287C4008A4A542C61377400000000000000000C65AA78D68826E4008A4A542C613774000000000000000000C00000016000000000000C00C
310
00000012000000FF7F00000C00000017000000000000000C000000130000009A3A00000C00000016000000000000C00C00000012000000FF7F00000C00000017000000FDFFFFFF0C0000003300000000000000
370
    -3
100
AcDbMLeader
270
     2
300
CONTEXT_DATA{
 40
1.0
 10
240.0752628582615
 20
369.2359034033148
 30
0.0
 41
4.0
140
10.0
145
2.0
174
     1
175
     1
176
     2
177
     0
290
     1
304

 11
0.0
 21
0.0
 31
1.0
340
11
 12
242.0752628582605
 22
371.2359034033148
 32
0.0
 13
1.0
 23
0.0
 33
0.0
 42
0.0
 43
0.0
 44
0.0
 45
1.0
170
     1
 90
-1073741824
171
     3
172
     5
 91
-1073741824
141
0.0
 92
        0
291
     0
292
     0
173
     0
293
     0
142
0.0
143
0.0
294
     0
295
     0
296
     0
110
450.5270411310635
120
332.0353776781651
130
0.0
111
1.0
121
0.0
131
0.0
112
0.0
122
1.0
132
0.0
297
     0
302
LEADER{
290
     1
291
     1
 10
450.5270411310635
 20
369.2359034033148
 30
0.0
 11
-1.0
 21
0.0
 31
0.0
 90
        0
 40
206.4517782728021
304
LEADER_LINE{
 10
450.5270411310635
 20
332.0353776781651
 30
0.0
 91
        0
305
}
271
     0
303
}
272
     9
273
     9
301
}
340
29F
 90
   279682
170
     1
 91
-1073741824
341
14
171
     5
290
     1
291
     1
 41
8.0
 42
10.0
172
     2
343
11
173
     1
 95
        1
174
     1
175
     2
 92
-1056964608
292
     0
 93
-1056964608
 10
1.0
 20
1.0
 30
1.0
 43
0.0
176
     0
293
     0
294
     0
178
     0
179
     3
 45
1.0
271
     0
272
     9
273
     9
295
     0
1001
ACAD_MLEADERVER
1070
     2
  0
MTEXT
  5
2B7
330
2A2
100
AcDbEntity
  8
0
370
    -3
100
AcDbMText
 10
247.0558890785577
 20
389.5217255000197
 30
0.0
 40
12.0
 41
305.3725550657814
 46
0.0
 71
     1
 72
     5
  1
\A1;Flush/Zero Reveal Cut Line
 73
     1
 44
1.0
101
Embedded Object
 70
     1
 10
1.0
 20
0.0
 30
0.0
 11
247.0558890785577
 21
389.5217255000197
 31
0.0
 40
305.3725550657814
 41
0.0
 42
288.0
 43
12.0
 71
     2
 72
     1
 44
305.3725550657814
 45
12.5
 73
     0
 74
     0
 46
30.41614051781163
  0
MULTILEADER
  5
2B8
330
2A2
100
AcDbEntity
  8
0
160
               464
310
D0010000180000000C00000016000000000000C00C00000033000000000000000C00000013000000993A00000C00000033000000000000000C00000010000000000000000C00000016000000000000C00C00000017000000050000000C00000012000000FF7F00000C00000013000000010000000C00000014000000010000
310
00540000000700000003000000FBA86BFF7A297B406FA53A893EAA86400000000000000000A65316AA25447B406FA53A893EFA8640000000000000000051FEC054D05E7B406FA53A893EAA864000000000000000000C00000014000000010000000C00000013000000891300003C0000000600000002000000A65316AA2544
310
7B406FA53A893EAA86400000000000000000A65316AA25447B40AB97BAE80672854000000000000000000C00000013000000112700003C0000000600000002000000A65316AA25447B40AB97BAE80672854000000000000000003CCA135E55356A40AB97BAE80672854000000000000000000C00000016000000000000C00C
310
00000012000000FF7F00000C00000017000000000000000C000000130000009A3A00000C00000016000000000000C00C00000012000000FF7F00000C00000017000000FDFFFFFF0C0000003300000000000000
370
    -3
100
AcDbMLeader
270
     2
300
CONTEXT_DATA{
 40
1.0
 10
205.6666708361171
 20
686.2533735826048
 30
0.0
 41
4.0
140
10.0
145
2.0
174
     1
175
     1
176
     2
177
     0
290
     1
304

 11
0.0
 21
0.0
 31
1.0
340
11
 12
207.6666708361175
 22
688.2533735826049
 32
0.0
 13
1.0
 23
0.0
 33
0.0
 42
0.0
 43
0.0
 44
0.0
 45
1.0
170
     1
 90
-1073741824
171
     3
172
     5
 91
-1073741824
141
0.0
 92
        0
291
     0
292
     0
173
     0
293
     0
142
0.0
143
0.0
294
     0
295
     0
296
     0
110
436.2591954109324
120
723.453899307755
130
0.0
111
1.0
121
0.0
131
0.0
112
0.0
122
1.0
132
0.0
297
     0
302
LEADER{
290
     1
291
     1
 10
436.2591954109324
 20
686.2533735826048
 30
0.0
 11
-1.0
 21
0.0
 31
0.0
 90
        0
 40
226.5925245748154
304
LEADER_LINE{
 10
436.2591954109324
 20
735.2805351812111
 30
0.0
 91
        0
305
}
271
     0
303
}
272
     9
273
     9
301
}
340
29F
 90
   279682
170
     1
 91
-1073741824
341
14
171
     5
290
     1
291
     1
 41
8.0
 42
10.0
172
     2
343
11
173
     1
 95
        1
174
     1
175
     2
 92
-1056964608
292
     0
 93
-1056964608
 10
1.0
 20
1.0
 30
1.0
 43
0.0
176
     0
293
     0
294
     0
178
     0
179
     3
 45
1.0
271
     0
272
     9
273
     9
295
     0
1001
ACAD_MLEADERVER
1070
     2
  0
MTEXT
  5
2B9
330
2A2
100
AcDbEntity
  8
0
370
    -3
100
AcDbMText
 10
210.2310867782265
 20
688.864603477852
 30
0.0
 40
12.0
 41
623.2451101315627
 46
0.0
 71
     7
 72
     5
  1
\A1;{\H1x;1/8}" Negative Reveal Cut Line
 73
     1
 44
1.0
101
Embedded Object
 70
     7
 10
1.0
 20
0.0
 30
0.0
 11
210.2310867782265
 21
688.864603477852
 31
0.0
 40
623.2451101315627
 41
0.0
 42
623.2451101315627
 43
16.0
 71
     2
 72
     2
 44
305.3725550657814
 45
12.5
 73
     0
 74
     0
 46
30.41614051781163
 46
0.0
  0
ENDBLK
  5
2BD
330
2A2
100
AcDbEntity
  8
0
100
AcDbBlockEnd
  0
BLOCK
  5
2C1
330
2C0
100
AcDbEntity
  8
0
100
AcDbBlockBegin
  2
*D7
 70
     1
 10
0.0
 20
0.0
 30
0.0
  3
*D7
  1

  0
LINE
  5
2C2
330
2C0
100
AcDbEntity
  8
0
 62
     1
440
 16777216
370
    -2
100
AcDbLine
 10
850.3208745561767
 20
1171.299589229047
 30
0.0
 11
850.3208745561767
 21
1261.576884285693
 31
0.0
  0
LINE
  5
2C3
330
2C0
100
AcDbEntity
  8
0
 62
     1
440
 16777216
370
    -2
100
AcDbLine
 10
1574.120874556194
 20
1171.299589229047
 30
0.0
 11
1574.120874556194
 21
1261.576884285693
 31
0.0
  0
LINE
  5
2C4
330
2C0
100
AcDbEntity
  8
0
 62
     1
440
 16777216
370
     9
100
AcDbLine
 10
852.7208745561765
 20
1260.376884285693
 30
0.0
 11
1571.720874556194
 21
1260.376884285693
 31
0.0
  0
SOLID
  5
2C5
330
2C0
100
AcDbEntity
  8
0
 62
     1
440
 16777216
100
AcDbTrace
 10
852.7208745561765
 20
1260.776884285693
 30
0.0
 11
852.7208745561765
 21
1259.976884285693
 31
0.0
 12
850.3208745561767
 22
1260.376884285693
 32
0.0
 13
850.3208745561767
 23
1260.376884285693
 33
0.0
  0
SOLID
  5
2C6
330
2C0
100
AcDbEntity
  8
0
 62
     1
440
 16777216
100
AcDbTrace
 10
1571.720874556194
 20
1260.776884285693
 30
0.0
 11
1571.720874556194
 21
1259.976884285693
 31
0.0
 12
1574.120874556194
 22
1260.376884285693
 32
0.0
 13
1574.120874556194
 23
1260.376884285693
 33
0.0
  0
MTEXT
  5
2C7
330
2C0
100
AcDbEntity
  8
0
 62
     3
440
 16777216
100
AcDbMText
 10
1212.220874556185
 20
1272.595165322528
 30
0.0
 40
20.0
 41
0.0
 46
0.0
 71
     5
 72
     1
  1
723.8 mm
  7
Arial
 73
     1
 44
1.0
  0
POINT
  5
2C8
330
2C0
100
AcDbEntity
  8
Defpoints
 62
     0
440
 16777216
100
AcDbPoint
 10
850.3208745561767
 20
1170.674589229047
 30
0.0
  0
POINT
  5
2C9
330
2C0
100
AcDbEntity
  8
Defpoints
 62
     0
440
 16777216
100
AcDbPoint
 10
1574.120874556194
 20
1170.674589229047
 30
0.0
  0
POINT
  5
2CA
330
2C0
100
AcDbEntity
  8
Defpoints
 62
     0
440
 16777216
100
AcDbPoint
 10
1574.120874556194
 20
1260.376884285693
 30
0.0
  0
ENDBLK
  5
2CB
330
2C0
100
AcDbEntity
  8
0
100
AcDbBlockEnd
  0
BLOCK
  5
2CD
330
2CC
100
AcDbEntity
  8
0
100
AcDbBlockBegin
  2
*D8
 70
     1
 10
0.0
 20
0.0
 30
0.0
  3
*D8
  1

  0
LINE
  5
2CE
330
2CC
100
AcDbEntity
  8
0
 62
     1
440
 16777216
370
    -2
100
AcDbLine
 10
836.0845068874683
 20
1161.822207606606
 30
0.0
 11
728.2957064498011
 21
1161.822207606606
 31
0.0
  0
LINE
  5
2CF
330
2CC
100
AcDbEntity
  8
0
 62
     1
440
 16777216
370
    -2
100
AcDbLine
 10
826.8171103101908
 20
730.0222076066056
 30
0.0
 11
728.2957064498011
 21
730.0222076066056
 31
0.0
  0
LINE
  5
2D0
330
2CC
100
AcDbEntity
  8
0
 62
     1
440
 16777216
370
     9
100
AcDbLine
 10
729.4957064498012
 20
1159.422207606606
 30
0.0
 11
729.4957064498012
 21
732.4222076066056
 31
0.0
  0
SOLID
  5
2D1
330
2CC
100
AcDbEntity
  8
0
 62
     1
440
 16777216
100
AcDbTrace
 10
729.0957064498011
 20
1159.422207606606
 30
0.0
 11
729.8957064498011
 21
1159.422207606606
 31
0.0
 12
729.4957064498012
 22
1161.822207606606
 32
0.0
 13
729.4957064498012
 23
1161.822207606606
 33
0.0
  0
SOLID
  5
2D2
330
2CC
100
AcDbEntity
  8
0
 62
     1
440
 16777216
100
AcDbTrace
 10
729.0957064498011
 20
732.4222076066056
 30
0.0
 11
729.8957064498011
 21
732.4222076066056
 31
0.0
 12
729.4957064498012
 22
730.0222076066056
 32
0.0
 13
729.4957064498012
 23
730.0222076066056
 33
0.0
  0
MTEXT
  5
2D3
330
2CC
100
AcDbEntity
  8
0
 62
     3
440
 16777216
370
    18
100
AcDbMText
 10
717.2774254129663
 20
945.9222076066057
 30
0.0
 40
20.0
 41
0.0
 46
0.0
 71
     5
 72
     1
  1
431.8 mm
  7
Arial
 11
0.0000000000000001
 21
1.0
 31
0.0
 73
     1
 44
1.0
  0
POINT
  5
2D4
330
2CC
100
AcDbEntity
  8
Defpoints
 62
     0
440
 16777216
100
AcDbPoint
 10
836.7095068874682
 20
1161.822207606606
 30
0.0
  0
POINT
  5
2D5
330
2CC
100
AcDbEntity
  8
Defpoints
 62
     0
440
 16777216
100
AcDbPoint
 10
827.4421103101907
 20
730.0222076066056
 30
0.0
  0
POINT
  5
2D6
330
2CC
100
AcDbEntity
  8
Defpoints
 62
     0
440
 16777216
100
AcDbPoint
 10
729.4957064498012
 20
730.0222076066056
 30
0.0
  0
ENDBLK
  5
2D7
330
2CC
100
AcDbEntity
  8
0
100
AcDbBlockEnd
  0
BLOCK
  5
2D9
330
2D8
100
AcDbEntity
  8
0
100
AcDbBlockBegin
  2
*D9
 70
     1
 10
0.0
 20
0.0
 30
0.0
  3
*D9
  1

  0
LINE
  5
2DA
330
2D8
100
AcDbEntity
  8
0
 62
     1
440
 16777216
370
     9
100
AcDbLine
 10
852.7331015609242
 20
1158.835032878795
 30
0.0
 11
802.448135709081
 21
1206.823228155621
 31
0.0
  0
LINE
  5
2DB
330
2D8
100
AcDbEntity
  8
0
 62
     1
440
 16777216
370
     9
100
AcDbLine
 10
802.448135709081
 20
1206.823228155621
 30
0.0
 11
698.8792407568301
 21
1206.823228155621
 31
0.0
  0
SOLID
  5
2DC
330
2D8
100
AcDbEntity
  8
0
 62
     1
440
 16777216
100
AcDbTrace
 10
853.0092584637332
 20
1159.12440697064
 30
0.0
 11
852.4569446581152
 21
1158.54565878695
 31
0.0
 12
854.4693461119928
 22
1157.178091461941
 32
0.0
 13
854.4693461119928
 23
1157.178091461941
 33
0.0
  0
MTEXT
  5
2DD
330
2D8
100
AcDbEntity
  8
0
 62
     3
440
 16777216
100
AcDbMText
 10
749.6636882329554
 20
1219.034687910055
 30
0.0
 40
20.0
 41
0.0
 46
0.0
 71
     5
 72
     1
  1
R15 mm
  7
Arial
 73
     1
 44
1.0
  0
POINT
  5
2DE
330
2D8
100
AcDbEntity
  8
Defpoints
 62
     0
440
 16777216
100
AcDbPoint
 10
854.4693461119928
 20
1157.178091461941
 30
0.0
  0
POINT
  5
2DF
330
2D8
100
AcDbEntity
  8
Defpoints
 62
     0
440
 16777216
100
AcDbPoint
 10
865.3208745561702
 20
1146.822207606605
 30
0.0
  0
ENDBLK
  5
2E0
330
2D8
100
AcDbEntity
  8
0
100
AcDbBlockEnd
  0
BLOCK
  5
316
330
315
100
AcDbEntity
  8
0
100
AcDbBlockBegin
  2
*D11
 70
     1
 10
0.0
 20
0.0
 30
0.0
  3
*D11
  1

  0
LINE
  5
32D
330
315
100
AcDbEntity
  8
0
 62
     1
440
 16777216
370
    -2
100
AcDbLine
 10
3043.04351336352
 20
1791.464434197342
 30
0.0
 11
3043.04351336352
 21
1881.741729253988
 31
0.0
  0
LINE
  5
32E
330
315
100
AcDbEntity
  8
0
 62
     1
440
 16777216
370
    -2
100
AcDbLine
 10
3766.843513363537
 20
1791.464434197342
 30
0.0
 11
3766.843513363537
 21
1881.741729253988
 31
0.0
  0
LINE
  5
32F
330
315
100
AcDbEntity
  8
0
 62
     1
440
 16777216
370
     9
100
AcDbLine
 10
3045.443513363519
 20
1880.541729253988
 30
0.0
 11
3764.443513363537
 21
1880.541729253988
 31
0.0
  0
SOLID
  5
330
330
315
100
AcDbEntity
  8
0
 62
     1
440
 16777216
100
AcDbTrace
 10
3045.443513363519
 20
1880.941729253988
 30
0.0
 11
3045.443513363519
 21
1880.141729253988
 31
0.0
 12
3043.04351336352
 22
1880.541729253988
 32
0.0
 13
3043.04351336352
 23
1880.541729253988
 33
0.0
  0
SOLID
  5
331
330
315
100
AcDbEntity
  8
0
 62
     1
440
 16777216
100
AcDbTrace
 10
3764.443513363537
 20
1880.941729253988
 30
0.0
 11
3764.443513363537
 21
1880.141729253988
 31
0.0
 12
3766.843513363537
 22
1880.541729253988
 32
0.0
 13
3766.843513363537
 23
1880.541729253988
 33
0.0
  0
MTEXT
  5
332
330
315
100
AcDbEntity
  8
0
 62
     3
440
 16777216
100
AcDbMText
 10
3404.943513363528
 20
1892.760010290822
 30
0.0
 40
20.0
 41
0.0
 46
0.0
 71
     5
 72
     1
  1
723.8 mm
  7
Arial
 73
     1
 44
1.0
  0
POINT
  5
333
330
315
100
AcDbEntity
  8
Defpoints
 62
     0
440
 16777216
100
AcDbPoint
 10
3043.04351336352
 20
1790.839434197341
 30
0.0
  0
POINT
  5
334
330
315
100
AcDbEntity
  8
Defpoints
 62
     0
440
 16777216
100
AcDbPoint
 10
3766.843513363537
 20
1790.839434197341
 30
0.0
  0
POINT
  5
335
330
315
100
AcDbEntity
  8
Defpoints
 62
     0
440
 16777216
100
AcDbPoint
 10
3766.843513363537
 20
1880.541729253988
 30
0.0
  0
ENDBLK
  5
317
330
315
100
AcDbEntity
  8
0
100
AcDbBlockEnd
  0
BLOCK
  5
322
330
321
100
AcDbEntity
  8
0
100
AcDbBlockBegin
  2
*D12
 70
     1
 10
0.0
 20
0.0
 30
0.0
  3
*D12
  1

  0
LINE
  5
336
330
321
100
AcDbEntity
  8
0
 62
     1
440
 16777216
370
    -2
100
AcDbLine
 10
3028.807145694811
 20
1781.987052574901
 30
0.0
 11
2921.018345257145
 21
1781.987052574901
 31
0.0
  0
LINE
  5
337
330
321
100
AcDbEntity
  8
0
 62
     1
440
 16777216
370
    -2
100
AcDbLine
 10
3019.539749117534
 20
1350.187052574901
 30
0.0
 11
2921.018345257145
 21
1350.187052574901
 31
0.0
  0
LINE
  5
338
330
321
100
AcDbEntity
  8
0
 62
     1
440
 16777216
370
     9
100
AcDbLine
 10
2922.218345257145
 20
1779.5870525749
 30
0.0
 11
2922.218345257145
 21
1352.587052574901
 31
0.0
  0
SOLID
  5
339
330
321
100
AcDbEntity
  8
0
 62
     1
440
 16777216
100
AcDbTrace
 10
2921.818345257145
 20
1779.5870525749
 30
0.0
 11
2922.618345257145
 21
1779.5870525749
 31
0.0
 12
2922.218345257145
 22
1781.987052574901
 32
0.0
 13
2922.218345257145
 23
1781.987052574901
 33
0.0
  0
SOLID
  5
33A
330
321
100
AcDbEntity
  8
0
 62
     1
440
 16777216
100
AcDbTrace
 10
2921.818345257145
 20
1352.587052574901
 30
0.0
 11
2922.618345257145
 21
1352.587052574901
 31
0.0
 12
2922.218345257145
 22
1350.187052574901
 32
0.0
 13
2922.218345257145
 23
1350.187052574901
 33
0.0
  0
MTEXT
  5
33B
330
321
100
AcDbEntity
  8
0
 62
     3
440
 16777216
370
    18
100
AcDbMText
 10
2910.00006422031
 20
1566.087052574899
 30
0.0
 40
20.0
 41
0.0
 46
0.0
 71
     5
 72
     1
  1
431.8 mm
  7
Arial
 11
0.0000000000000001
 21
1.0
 31
0.0
 73
     1
 44
1.0
  0
POINT
  5
33C
330
321
100
AcDbEntity
  8
Defpoints
 62
     0
440
 16777216
100
AcDbPoint
 10
3029.432145694812
 20
1781.987052574901
 30
0.0
  0
POINT
  5
33D
330
321
100
AcDbEntity
  8
Defpoints
 62
     0
440
 16777216
100
AcDbPoint
 10
3020.164749117534
 20
1350.187052574901
 30
0.0
  0
POINT
  5
33E
330
321
100
AcDbEntity
  8
Defpoints
 62
     0
440
 16777216
100
AcDbPoint
 10
2922.218345257145
 20
1350.187052574901
 30
0.0
  0
ENDBLK
  5
323
330
321
100
AcDbEntity
  8
0
100
AcDbBlockEnd
  0
BLOCK
  5
340
330
33F
100
AcDbEntity
  8
0
100
AcDbBlockBegin
  2
*D13
 70
     1
 10
0.0
 20
0.0
 30
0.0
  3
*D13
  1

  0
LINE
  5
348
330
33F
100
AcDbEntity
  8
0
 62
     1
440
 16777216
370
     9
100
AcDbLine
 10
3045.455740368266
 20
1778.99987784709
 30
0.0
 11
2995.170774516424
 21
1826.988073123915
 31
0.0
  0
LINE
  5
349
330
33F
100
AcDbEntity
  8
0
 62
     1
440
 16777216
370
     9
100
AcDbLine
 10
2995.170774516424
 20
1826.988073123915
 30
0.0
 11
2891.601879564173
 21
1826.988073123916
 31
0.0
  0
SOLID
  5
34A
330
33F
100
AcDbEntity
  8
0
 62
     1
440
 16777216
100
AcDbTrace
 10
3045.731897271076
 20
1779.289251938935
 30
0.0
 11
3045.179583465457
 21
1778.710503755245
 31
0.0
 12
3047.191984919335
 22
1777.342936430236
 32
0.0
 13
3047.191984919335
 23
1777.342936430236
 33
0.0
  0
MTEXT
  5
34B
330
33F
100
AcDbEntity
  8
0
 62
     3
440
 16777216
100
AcDbMText
 10
2942.386327040298
 20
1839.19953287835
 30
0.0
 40
20.0
 41
0.0
 46
0.0
 71
     5
 72
     1
  1
R15 mm
  7
Arial
 73
     1
 44
1.0
  0
POINT
  5
34C
330
33F
100
AcDbEntity
  8
Defpoints
 62
     0
440
 16777216
100
AcDbPoint
 10
3047.191984919335
 20
1777.342936430236
 30
0.0
  0
POINT
  5
34D
330
33F
100
AcDbEntity
  8
Defpoints
 62
     0
440
 16777216
100
AcDbPoint
 10
3058.043513363513
 20
1766.987052574899
 30
0.0
  0
ENDBLK
  5
341
330
33F
100
AcDbEntity
  8
0
100
AcDbBlockEnd
  0
BLOCK
  5
375
330
374
100
AcDbEntity
  8
0
100
AcDbBlockBegin
  2
*D15
 70
     1
 10
0.0
 20
0.0
 30
0.0
  3
*D15
  1

  0
LINE
  5
376
330
374
100
AcDbEntity
  8
0
 62
     1
440
 16777216
370
    -2
100
AcDbLine
 10
5517.859823348547
 20
1520.152791089778
 30
0.0
 11
5517.859823348547
 21
1610.430086146424
 31
0.0
  0
LINE
  5
377
330
374
100
AcDbEntity
  8
0
 62
     1
440
 16777216
370
    -2
100
AcDbLine
 10
6020.859823348539
 20
1520.152791089779
 30
0.0
 11
6020.859823348539
 21
1610.430086146424
 31
0.0
  0
LINE
  5
378
330
374
100
AcDbEntity
  8
0
 62
     1
440
 16777216
370
     9
100
AcDbLine
 10
5520.259823348546
 20
1609.230086146424
 30
0.0
 11
6018.459823348539
 21
1609.230086146424
 31
0.0
  0
SOLID
  5
379
330
374
100
AcDbEntity
  8
0
 62
     1
440
 16777216
100
AcDbTrace
 10
5520.259823348546
 20
1609.630086146424
 30
0.0
 11
5520.259823348546
 21
1608.830086146423
 31
0.0
 12
5517.859823348547
 22
1609.230086146424
 32
0.0
 13
5517.859823348547
 23
1609.230086146424
 33
0.0
  0
SOLID
  5
37A
330
374
100
AcDbEntity
  8
0
 62
     1
440
 16777216
100
AcDbTrace
 10
6018.459823348539
 20
1609.630086146424
 30
0.0
 11
6018.459823348539
 21
1608.830086146423
 31
0.0
 12
6020.859823348539
 22
1609.230086146424
 32
0.0
 13
6020.859823348539
 23
1609.230086146424
 33
0.0
  0
MTEXT
  5
37B
330
374
100
AcDbEntity
  8
0
 62
     3
440
 16777216
100
AcDbMText
 10
5769.359823348543
 20
1621.448367183259
 30
0.0
 40
20.0
 41
0.0
 46
0.0
 71
     5
 72
     1
  1
503 mm
  7
Arial
 73
     1
 44
1.0
  0
POINT
  5
37C
330
374
100
AcDbEntity
  8
Defpoints
 62
     0
440
 16777216
100
AcDbPoint
 10
5517.859823348547
 20
1519.527791089777
 30
0.0
  0
POINT
  5
37D
330
374
100
AcDbEntity
  8
Defpoints
 62
     0
440
 16777216
100
AcDbPoint
 10
6020.859823348539
 20
1519.527791089779
 30
0.0
  0
POINT
  5
37E
330
374
100
AcDbEntity
  8
Defpoints
 62
     0
440
 16777216
100
AcDbPoint
 10
6020.859823348539
 20
1609.230086146424
 30
0.0
  0
ENDBLK
  5
37F
330
374
100
AcDbEntity
  8
0
100
AcDbBlockEnd
  0
BLOCK
  5
381
330
380
100
AcDbEntity
  8
0
100
AcDbBlockBegin
  2
*D16
 70
     1
 10
0.0
 20
0.0
 30
0.0
  3
*D16
  1

  0
LINE
  5
382
330
380
100
AcDbEntity
  8
0
 62
     1
440
 16777216
370
    -2
100
AcDbLine
 10
5500.123455679838
 20
1507.175409467336
 30
0.0
 11
5392.334655242183
 21
1507.175409467336
 31
0.0
  0
LINE
  5
383
330
380
100
AcDbEntity
  8
0
 62
     1
440
 16777216
370
    -2
100
AcDbLine
 10
5490.856059102561
 20
1174.175409467336
 30
0.0
 11
5392.334655242183
 21
1174.175409467336
 31
0.0
  0
LINE
  5
384
330
380
100
AcDbEntity
  8
0
 62
     1
440
 16777216
370
     9
100
AcDbLine
 10
5393.534655242183
 20
1504.775409467336
 30
0.0
 11
5393.534655242183
 21
1176.575409467337
 31
0.0
  0
SOLID
  5
385
330
380
100
AcDbEntity
  8
0
 62
     1
440
 16777216
100
AcDbTrace
 10
5393.134655242183
 20
1504.775409467336
 30
0.0
 11
5393.934655242182
 21
1504.775409467336
 31
0.0
 12
5393.534655242183
 22
1507.175409467336
 32
0.0
 13
5393.534655242183
 23
1507.175409467336
 33
0.0
  0
SOLID
  5
386
330
380
100
AcDbEntity
  8
0
 62
     1
440
 16777216
100
AcDbTrace
 10
5393.134655242183
 20
1176.575409467337
 30
0.0
 11
5393.934655242182
 21
1176.575409467337
 31
0.0
 12
5393.534655242183
 22
1174.175409467336
 32
0.0
 13
5393.534655242183
 23
1174.175409467336
 33
0.0
  0
MTEXT
  5
387
330
380
100
AcDbEntity
  8
0
 62
     3
440
 16777216
370
    18
100
AcDbMText
 10
5381.316374205347
 20
1340.675409467335
 30
0.0
 40
20.0
 41
0.0
 46
0.0
 71
     5
 72
     1
  1
333 mm
  7
Arial
 11
0.0000000000000001
 21
1.0
 31
0.0
 73
     1
 44
1.0
  0
POINT
  5
388
330
380
100
AcDbEntity
  8
Defpoints
 62
     0
440
 16777216
100
AcDbPoint
 10
5500.748455679838
 20
1507.175409467336
 30
0.0
  0
POINT
  5
389
330
380
100
AcDbEntity
  8
Defpoints
 62
     0
440
 16777216
100
AcDbPoint
 10
5491.481059102561
 20
1174.175409467336
 30
0.0
  0
POINT
  5
38A
330
380
100
AcDbEntity
  8
Defpoints
 62
     0
440
 16777216
100
AcDbPoint
 10
5393.534655242183
 20
1174.175409467336
 30
0.0
  0
ENDBLK
  5
38B
330
380
100
AcDbEntity
  8
0
100
AcDbBlockEnd
  0
BLOCK
  5
38D
330
38C
100
AcDbEntity
  8
0
100
AcDbBlockBegin
  2
*D17
 70
     1
 10
0.0
 20
0.0
 30
0.0
  3
*D17
  1

  0
LINE
  5
38E
330
38C
100
AcDbEntity
  8
0
 62
     1
440
 16777216
370
     9
100
AcDbLine
 10
5520.782253614753
 20
1506.68490111598
 30
0.0
 11
5480.857635303047
 21
1553.452274144662
 31
0.0
  0
LINE
  5
38F
330
38C
100
AcDbEntity
  8
0
 62
     1
440
 16777216
370
     9
100
AcDbLine
 10
5480.857635303047
 20
1553.452274144662
 30
0.0
 11
5353.987239668668
 21
1553.452274144661
 31
0.0
  0
SOLID
  5
390
330
38C
100
AcDbEntity
  8
0
 62
     1
440
 16777216
100
AcDbTrace
 10
5521.08647539683
 20
1506.94461077562
 30
0.0
 11
5520.478031832677
 21
1506.425191456342
 31
0.0
 12
5522.340511572592
 22
1504.859570423521
 32
0.0
 13
5522.340511572592
 23
1504.859570423521
 33
0.0
  0
MTEXT
  5
391
330
38C
100
AcDbEntity
  8
0
 62
     3
440
 16777216
100
AcDbMText
 10
5416.422437485857
 20
1565.663733899095
 30
0.0
 40
20.0
 41
0.0
 46
0.0
 71
     5
 72
     1
  1
R11.5 mm
  7
Arial
 73
     1
 44
1.0
  0
POINT
  5
392
330
38C
100
AcDbEntity
  8
Defpoints
 62
     0
440
 16777216
100
AcDbPoint
 10
5522.340511572592
 20
1504.859570423521
 30
0.0
  0
POINT
  5
393
330
38C
100
AcDbEntity
  8
Defpoints
 62
     0
440
 16777216
100
AcDbPoint
 10
5532.079623809074
 20
1493.451253595649
 30
0.0
  0
ENDBLK
  5
394
330
38C
100
AcDbEntity
  8
0
100
AcDbBlockEnd
  0
BLOCK
  5
3C6
330
3C5
100
AcDbEntity
  8
0
100
AcDbBlockBegin
  2
*D19
 70
     1
 10
0.0
 20
0.0
 30
0.0
  3
*D19
  1

  0
LINE
  5
45E
330
3C5
100
AcDbEntity
  8
0
 62
     1
440
 16777216
370
    -2
100
AcDbLine
 10
1916.588359763005
 20
1620.617585657146
 30
0.0
 11
1808.799559325355
 21
1620.617585657146
 31
0.0
  0
LINE
  5
45F
330
3C5
100
AcDbEntity
  8
0
 62
     1
440
 16777216
370
    -2
100
AcDbLine
 10
1907.320963185728
 20
1257.617585657145
 30
0.0
 11
1808.799559325355
 21
1257.617585657145
 31
0.0
  0
LINE
  5
460
330
3C5
100
AcDbEntity
  8
0
 62
     1
440
 16777216
370
     9
100
AcDbLine
 10
1809.999559325355
 20
1618.217585657146
 30
0.0
 11
1809.999559325355
 21
1260.017585657145
 31
0.0
  0
SOLID
  5
461
330
3C5
100
AcDbEntity
  8
0
 62
     1
440
 16777216
100
AcDbTrace
 10
1809.599559325355
 20
1618.217585657146
 30
0.0
 11
1810.399559325355
 21
1618.217585657146
 31
0.0
 12
1809.999559325355
 22
1620.617585657146
 32
0.0
 13
1809.999559325355
 23
1620.617585657146
 33
0.0
  0
SOLID
  5
462
330
3C5
100
AcDbEntity
  8
0
 62
     1
440
 16777216
100
AcDbTrace
 10
1809.599559325355
 20
1260.017585657145
 30
0.0
 11
1810.399559325356
 21
1260.017585657145
 31
0.0
 12
1809.999559325355
 22
1257.617585657145
 32
0.0
 13
1809.999559325355
 23
1257.617585657145
 33
0.0
  0
MTEXT
  5
463
330
3C5
100
AcDbEntity
  8
0
 62
     3
440
 16777216
370
    18
100
AcDbMText
 10
1797.78127828852
 20
1439.117585657145
 30
0.0
 40
20.0
 41
0.0
 46
0.0
 71
     5
 72
     1
  1
363 mm
  7
Arial
 11
0.0000000000000001
 21
1.0
 31
0.0
 73
     1
 44
1.0
  0
POINT
  5
464
330
3C5
100
AcDbEntity
  8
Defpoints
 62
     0
440
 16777216
100
AcDbPoint
 10
1917.213359763005
 20
1620.617585657146
 30
0.0
  0
POINT
  5
465
330
3C5
100
AcDbEntity
  8
Defpoints
 62
     0
440
 16777216
100
AcDbPoint
 10
1907.945963185727
 20
1257.617585657145
 30
0.0
  0
POINT
  5
466
330
3C5
100
AcDbEntity
  8
Defpoints
 62
     0
440
 16777216
100
AcDbPoint
 10
1809.999559325355
 20
1257.617585657145
 30
0.0
  0
ENDBLK
  5
3C7
330
3C5
100
AcDbEntity
  8
0
100
AcDbBlockEnd
  0
BLOCK
  5
3D2
330
3D1
100
AcDbEntity
  8
0
100
AcDbBlockBegin
  2
*D20
 70
     1
 10
0.0
 20
0.0
 30
0.0
  3
*D20
  1

  0
LINE
  5
416
330
3D1
100
AcDbEntity
  8
0
 62
     1
440
 16777216
370
     9
100
AcDbLine
 10
1936.134741490224
 20
1619.07464433325
 30
0.0
 11
1896.210123178518
 21
1665.84201736193
 31
0.0
  0
LINE
  5
417
330
3D1
100
AcDbEntity
  8
0
 62
     1
440
 16777216
370
     9
100
AcDbLine
 10
1896.210123178518
 20
1665.84201736193
 30
0.0
 11
1769.339727544139
 21
1665.84201736193
 31
0.0
  0
SOLID
  5
418
330
3D1
100
AcDbEntity
  8
0
 62
     1
440
 16777216
100
AcDbTrace
 10
1936.438963272301
 20
1619.334353992889
 30
0.0
 11
1935.830519708147
 21
1618.81493467361
 31
0.0
 12
1937.692999448061
 22
1617.24931364079
 32
0.0
 13
1937.692999448061
 23
1617.24931364079
 33
0.0
  0
MTEXT
  5
419
330
3D1
100
AcDbEntity
  8
0
 62
     3
440
 16777216
100
AcDbMText
 10
1831.774925361328
 20
1678.053477116364
 30
0.0
 40
20.0
 41
0.0
 46
0.0
 71
     5
 72
     1
  1
R11.5 mm
  7
Arial
 73
     1
 44
1.0
  0
POINT
  5
41A
330
3D1
100
AcDbEntity
  8
Defpoints
 62
     0
440
 16777216
100
AcDbPoint
 10
1937.692999448061
 20
1617.24931364079
 30
0.0
  0
POINT
  5
41B
330
3D1
100
AcDbEntity
  8
Defpoints
 62
     0
440
 16777216
100
AcDbPoint
 10
1947.432111684544
 20
1605.840996812919
 30
0.0
  0
ENDBLK
  5
3D3
330
3D1
100
AcDbEntity
  8
0
100
AcDbBlockEnd
  0
BLOCK
  5
3DB
330
3DA
100
AcDbEntity
  8
0
100
AcDbBlockBegin
  2
*D21
 70
     1
 10
0.0
 20
0.0
 30
0.0
  3
*D21
  1

  0
LINE
  5
44C
330
3DA
100
AcDbEntity
  8
0
 62
     1
440
 16777216
370
    -2
100
AcDbLine
 10
1934.324727431707
 20
1633.594967279587
 30
0.0
 11
1934.324727431707
 21
1723.872262336233
 31
0.0
  0
LINE
  5
44D
330
3DA
100
AcDbEntity
  8
0
 62
     1
440
 16777216
370
    -2
100
AcDbLine
 10
2497.324727431708
 20
1633.594967279588
 30
0.0
 11
2497.324727431708
 21
1723.872262336233
 31
0.0
  0
LINE
  5
44E
330
3DA
100
AcDbEntity
  8
0
 62
     1
440
 16777216
370
     9
100
AcDbLine
 10
1936.724727431707
 20
1722.672262336233
 30
0.0
 11
2494.924727431708
 21
1722.672262336233
 31
0.0
  0
SOLID
  5
44F
330
3DA
100
AcDbEntity
  8
0
 62
     1
440
 16777216
100
AcDbTrace
 10
1936.724727431707
 20
1723.072262336233
 30
0.0
 11
1936.724727431707
 21
1722.272262336233
 31
0.0
 12
1934.324727431707
 22
1722.672262336233
 32
0.0
 13
1934.324727431707
 23
1722.672262336233
 33
0.0
  0
SOLID
  5
450
330
3DA
100
AcDbEntity
  8
0
 62
     1
440
 16777216
100
AcDbTrace
 10
2494.924727431708
 20
1723.072262336233
 30
0.0
 11
2494.924727431708
 21
1722.272262336233
 31
0.0
 12
2497.324727431708
 22
1722.672262336233
 32
0.0
 13
2497.324727431708
 23
1722.672262336233
 33
0.0
  0
MTEXT
  5
451
330
3DA
100
AcDbEntity
  8
0
 62
     3
440
 16777216
100
AcDbMText
 10
2215.824727431707
 20
1734.890543373068
 30
0.0
 40
20.0
 41
0.0
 46
0.0
 71
     5
 72
     1
  1
563 mm
  7
Arial
 73
     1
 44
1.0
  0
POINT
  5
452
330
3DA
100
AcDbEntity
  8
Defpoints
 62
     0
440
 16777216
100
AcDbPoint
 10
1934.324727431707
 20
1632.969967279587
 30
0.0
  0
POINT
  5
453
330
3DA
100
AcDbEntity
  8
Defpoints
 62
     0
440
 16777216
100
AcDbPoint
 10
2497.324727431708
 20
1632.969967279588
 30
0.0
  0
POINT
  5
454
330
3DA
100
AcDbEntity
  8
Defpoints
 62
     0
440
 16777216
100
AcDbPoint
 10
2497.324727431708
 20
1722.672262336233
 30
0.0
  0
ENDBLK
  5
3DC
330
3DA
100
AcDbEntity
  8
0
100
AcDbBlockEnd
  0
ENDSEC
  0
SECTION
  2
ENTITIES
  0
LWPOLYLINE
  5
1B2
330
1F
100
AcDbEntity
  8
0
  6
ACAD_ISO02W100
 62
     2
 48
2.0
370
    18
100
AcDbPolyline
 90
        8
 70
   129
 43
0.0
 10
1945.824727431707
 20
1257.617585657145
 10
2485.824727431707
 20
1257.617585657145
 42
0.4142135623730946
 10
2497.324727431708
 20
1269.117585657145
 10
2497.324727431708
 20
1609.117585657145
 42
0.4142135623730951
 10
2485.824727431709
 20
1620.617585657145
 10
1945.824727431707
 20
1620.617585657145
 42
0.4142135623730951
 10
1934.324727431707
 20
1609.117585657145
 10
1934.324727431707
 20
1269.117585657145
 42
0.4142135623730953
  0
LWPOLYLINE
  5
363
330
1F
100
AcDbEntity
  8
0
 48
0.01
100
AcDbPolyline
 90
        2
 70
     1
 43
0.0
 10
1910.10512264397
 20
1078.511309499017
 10
1900.130180706633
 20
1078.511309499017
  0
LWPOLYLINE
  5
364
330
1F
100
AcDbEntity
  8
0
 48
0.01
100
AcDbPolyline
 90
        2
 70
     1
 43
0.0
 10
1910.10512264397
 20
1078.511309499017
 10
1900.130180706633
 20
1078.511309499017
  0
LWPOLYLINE
  5
365
330
1F
100
AcDbEntity
  8
0
 48
0.01
100
AcDbPolyline
 90
        2
 70
     0
 43
0.0
 10
1900.130180706633
 20
1078.511309499017
 10
1910.10512264397
 20
1078.511309499017
  0
HATCH
  5
366
330
1F
100
AcDbEntity
  8
0
 48
0.01
100
AcDbHatch
 10
0.0
 20
0.0
 30
0.0
210
0.0
220
0.0
230
1.0
  2
SOLID
 70
     1
 71
     1
 91
        4
 92
        1
 93
       18
 72
     2
 10
1892.237770003776
 20
1107.89767103328
 40
7.435636738140855
 50
269.7916686807994
 51
320.9989335064374
 73
     1
 72
     2
 10
1889.424035995279
 20
1110.199525642376
 40
11.07093788473811
 50
320.9054195612345
 51
359.1320713946906
 73
     1
 72
     1
 10
1900.493703689538
 20
1110.03182714384
 11
1911.134946591919
 21
1110.03182714384
 72
     2
 10
1850.643374696977
 20
1117.623117999584
 40
60.9660394578602
 50
7.152847449079307
 51
14.74728455778298
 73
     0
 72
     2
 10
1895.541010911459
 20
1106.03387522422
 40
14.59898874689391
 50
15.61661756341091
 51
45.01773962628082
 73
     0
 72
     2
 10
1898.005296912245
 20
1087.291771451706
 40
11.51245466931423
 50
313.0278119653504
 51
349.7816523317037
 73
     0
 72
     2
 10
1882.863715944223
 20
1082.88688787228
 40
27.24524081107665
 50
346.3119490089208
 51
360.9612354025415
 73
     0
 72
     1
 10
1910.10512264397
 20
1082.429823464834
 11
1910.10512264397
 21
1078.511309499017
 72
     1
 10
1910.10512264397
 20
1078.511309499017
 11
1900.130180706633
 21
1078.511309499017
 72
     1
 10
1900.130180706633
 20
1078.511309499017
 11
1900.130180706633
 21
1082.429823464834
 72
     2
 10
1889.980433255014
 20
1082.39100115384
 40
10.14982169811313
 50
0.219152617736957
 51
32.34155472375842
 73
     1
 72
     2
 10
1895.349125087349
 20
1085.173060076476
 40
4.15848699340251
 50
39.54679752993524
 51
90.81473986293149
 73
     1
 72
     1
 10
1895.289993839437
 20
1089.331126642781
 11
1892.210733586599
 21
1089.331126642781
 72
     1
 10
1892.210733586599
 20
1089.331126642781
 11
1892.210733586599
 21
1078.511309499017
 72
     1
 10
1892.210733586599
 20
1078.511309499017
 11
1881.385671990148
 21
1078.511309499017
 72
     1
 10
1881.385671990148
 20
1078.511309499017
 11
1881.385671990148
 21
1114.795043067279
 72
     1
 10
1881.385671990148
 20
1114.795043067279
 11
1892.210733586599
 21
1114.795043067279
 72
     1
 10
1892.210733586599
 20
1114.795043067279
 11
1892.210733586599
 21
1100.462083448311
 97
        1
330
36B
 92
        1
 93
       13
 72
     1
 10
1975.660775743446
 20
1078.511309499017
 11
1965.11211723922
 21
1078.511309499017
 72
     1
 10
1965.11211723922
 20
1078.511309499017
 11
1975.660775743446
 21
1078.511309499017
 72
     1
 10
1975.660775743446
 20
1078.511309499017
 11
1965.11211723922
 21
1078.511309499017
 72
     1
 10
1965.11211723922
 20
1078.511309499017
 11
1975.660775743446
 21
1078.511309499017
 72
     1
 10
1975.660775743446
 20
1078.511309499017
 11
1965.11211723922
 21
1078.511309499017
 72
     1
 10
1965.11211723922
 20
1078.511309499017
 11
1965.11211723922
 21
1098.646528044072
 72
     2
 10
1978.417003481513
 20
1096.317115212731
 40
13.50726330753878
 50
189.9306651113149
 51
241.3472543704108
 73
     0
 72
     2
 10
1981.417076749037
 20
1091.146341914758
 40
19.48397167084048
 50
240.8964322887967
 51
271.1806348794413
 73
     0
 72
     1
 10
1981.818534393463
 20
1110.62617722797
 11
1984.390211727888
 21
1110.62617722797
 72
     1
 10
1984.390211727888
 20
1110.62617722797
 11
1984.390211727888
 21
1100.416083078825
 72
     1
 10
1984.390211727888
 20
1100.416083078825
 11
1980.467332276146
 21
1100.416083078825
 72
     2
 10
1980.921590413392
 20
1095.0977287768
 40
5.337718888919403
 50
94.8819719998594
 51
170.2622711153981
 73
     1
 72
     1
 10
1975.660775743446
 20
1096.000542127171
 11
1975.660775743446
 21
1078.511309499017
 97
        1
330
368
 92
        1
 93
       24
 72
     2
 10
1999.347401760859
 20
1093.936795774395
 40
15.42595119482939
 50
89.55516228348374
 51
178.5796567088732
 73
     0
 72
     2
 10
2000.577893749226
 20
1093.96730551091
 40
16.65682136566605
 50
178.5796567088566
 51
269.9999999999594
 73
     0
 72
     1
 10
2000.577893749214
 20
1110.624126876576
 11
2016.924489592107
 21
1110.624126876576
 72
     1
 10
2016.924489592107
 20
1110.624126876576
 11
2016.924489592107
 21
1088.572117178343
 72
     1
 10
2016.924489592107
 20
1088.572117178343
 11
2019.595659968051
 21
1088.572117178343
 72
     1
 10
2019.595659968051
 20
1088.572117178343
 11
2019.595659968051
 21
1099.272591846231
 72
     2
 10
2033.86548020076
 20
1096.343735153563
 40
14.56729113459372
 50
191.5987796846282
 51
348.4012203153718
 73
     0
 72
     1
 10
2048.135300433468
 20
1099.272591846231
 11
2048.135300433468
 21
1078.511309499017
 72
     1
 10
2048.135300433468
 20
1078.511309499017
 11
2037.316638317494
 21
1078.511309499017
 72
     1
 10
2037.316638317494
 20
1078.511309499017
 11
2037.316638317494
 21
1097.489173042695
 72
     2
 10
2033.740826490949
 20
1096.503099029881
 40
3.709281895139297
 50
15.41684788794928
 51
164.5831521120507
 73
     1
 72
     1
 10
2030.165014664404
 20
1097.489173042695
 11
2030.165014664404
 21
1078.511309499017
 72
     1
 10
2030.165014664404
 20
1078.511309499017
 11
2016.924489592107
 21
1078.511309499017
 72
     1
 10
2016.924489592107
 20
1078.511309499017
 11
2005.91724704127
 21
1078.511309499017
 72
     1
 10
2005.91724704127
 20
1078.511309499017
 11
2005.91724704127
 21
1100.168969562027
 72
     1
 10
2005.91724704127
 20
1100.168969562027
 11
2000.383194193891
 21
1100.168969562027
 72
     2
 10
2001.042034818858
 20
1093.817965297778
 40
6.385086227578821
 50
95.92256612287432
 51
227.9508210801636
 73
     1
 72
     2
 10
2001.51068323648
 20
1096.939917851091
 40
9.184150253965972
 50
238.8908443430248
 51
292.3701724773337
 73
     1
 72
     1
 10
2005.006069951064
 20
1088.446927352867
 11
2005.006069951064
 21
1078.511309499017
 72
     1
 10
2005.006069951064
 20
1078.511309499017
 11
1999.467165834668
 21
1078.511309499017
 72
     1
 10
1999.467165834668
 20
1078.511309499017
 11
2005.006069951064
 21
1078.511309499017
 72
     1
 10
2005.006069951064
 20
1078.511309499017
 11
1999.467165834668
 21
1078.511309499017
 72
     1
 10
1999.467165834668
 20
1078.511309499017
 11
2005.006069951064
 21
1078.511309499017
 72
     1
 10
2005.006069951064
 20
1078.511309499017
 11
1999.467165834668
 21
1078.511309499017
 97
        1
330
367
 92
       33
 93
       19
 72
     2
 10
1926.508886340354
 20
1093.672974097113
 40
16.3593351408177
 50
89.56013260017156
 51
220.1649815580656
 73
     1
 72
     2
 10
1927.0345726874
 20
1098.888462694348
 40
20.45270418759616
 50
230.4352990380086
 51
282.0112670967882
 73
     1
 72
     1
 10
1931.290863006701
 20
1078.883535768634
 11
1931.290863006701
 21
1088.420646188579
 72
     2
 10
1927.876564139223
 20
1095.984238624981
 40
8.298515969766009
 50
65.70499677465284
 51
133.5351328222436
 73
     0
 72
     2
 10
1926.989964161389
 20
1093.653589596878
 40
6.074967132317043
 50
142.652341981933
 51
269.1039790738925
 73
     0
 72
     1
 10
1926.894964567121
 20
1099.72781388775
 11
1932.4290174145
 21
1099.72781388775
 72
     1
 10
1932.4290174145
 20
1099.72781388775
 11
1932.4290174145
 21
1078.511309499017
 72
     1
 10
1932.4290174145
 20
1078.511309499017
 11
1956.389353053566
 21
1078.511309499017
 72
     1
 10
1956.389353053566
 20
1078.511309499017
 11
1956.389353053566
 21
1095.522224151414
 72
     2
 10
1961.557189462282
 20
1094.563207145909
 40
5.256067614110394
 50
190.5130243045929
 51
267.3007158678374
 73
     0
 72
     1
 10
1961.309660370034
 20
1099.81344296086
 11
1965.214236608257
 21
1099.81344296086
 72
     1
 10
1965.214236608257
 20
1099.81344296086
 11
1965.214236608257
 21
1110.41219167282
 72
     1
 10
1965.214236608257
 20
1110.41219167282
 11
1962.642559273831
 21
1110.41219167282
 72
     2
 10
1962.361784709257
 20
1085.812221320462
 40
24.60157262642054
 50
89.34607648683991
 51
115.1753773784171
 73
     1
 72
     2
 10
1957.390422360779
 20
1096.743350128923
 40
12.59492606554628
 50
115.8616959887333
 51
169.220374764859
 73
     1
 72
     1
 10
1945.017748593969
 20
1099.099004275158
 11
1945.017748593969
 21
1088.582521306268
 72
     1
 10
1945.017748593969
 20
1088.582521306268
 11
1943.238420707709
 21
1088.582521306268
 72
     1
 10
1943.238420707709
 20
1088.582521306268
 11
1943.238420707709
 21
1110.03182714384
 72
     1
 10
1943.238420707709
 20
1110.03182714384
 11
1926.383294759499
 21
1110.03182714384
 97
        1
330
36A
 75
     1
 76
     1
 98
        1
 10
-11607.60342610729
 20
-9278.024839895552
450
        0
451
        0
460
0.0
461
0.0
452
        0
462
0.0
453
        2
463
0.0
 63
     5
421
      255
463
1.0
 63
     2
421
 16776960
470
LINEAR
1001
GradientColor1ACI
1070
     5
1001
GradientColor2ACI
1070
     2
1001
ACAD
1010
0.0
1020
0.0
1030
0.0
  0
LWPOLYLINE
  5
367
102
{ACAD_REACTORS
330
366
102
}
330
1F
100
AcDbEntity
  8
0
 48
0.01
100
AcDbPolyline
 90
       24
 70
     1
 43
0.0
 10
1999.467165834668
 20
1078.511309499017
 42
-0.4092355721717349
 10
1983.926190159587
 20
1093.554430747179
 42
-0.4214930677972201
 10
2000.577893749214
 20
1110.624126876576
 10
2016.924489592107
 20
1110.624126876576
 10
2016.924489592107
 20
1088.572117178343
 10
2019.595659968051
 20
1088.572117178343
 10
2019.595659968051
 20
1099.272591846231
 42
-0.8155978317966516
 10
2048.135300433468
 20
1099.272591846231
 10
2048.135300433468
 20
1078.511309499017
 10
2037.316638317494
 20
1078.511309499017
 10
2037.316638317494
 20
1097.489173042695
 42
0.7615635314222832
 10
2030.165014664404
 20
1097.489173042695
 10
2030.165014664404
 20
1078.511309499017
 10
2016.924489592107
 20
1078.511309499017
 10
2005.91724704127
 20
1078.511309499017
 10
2005.91724704127
 20
1100.168969562027
 10
2000.383194193891
 20
1100.168969562027
 42
0.6495828859663999
 10
1996.765506941318
 20
1089.076590450096
 42
0.2376772601789094
 10
2005.006069951064
 20
1088.446927352867
 10
2005.006069951064
 20
1078.511309499017
 10
1999.467165834668
 20
1078.511309499017
 10
2005.006069951064
 20
1078.511309499017
 10
1999.467165834668
 20
1078.511309499017
 10
2005.006069951064
 20
1078.511309499017
  0
LWPOLYLINE
  5
368
102
{ACAD_REACTORS
330
366
102
}
330
1F
100
AcDbEntity
  8
0
 48
0.01
100
AcDbPolyline
 90
       13
 70
     1
 43
0.0
 10
1975.660775743446
 20
1078.511309499017
 10
1965.11211723922
 20
1078.511309499017
 10
1975.660775743446
 20
1078.511309499017
 10
1965.11211723922
 20
1078.511309499017
 10
1975.660775743446
 20
1078.511309499017
 10
1965.11211723922
 20
1078.511309499017
 10
1965.11211723922
 20
1098.646528044072
 42
-0.2281884693300767
 10
1971.940271902597
 20
1108.170305083557
 42
-0.1329142652906163
 10
1981.818534393463
 20
1110.62617722797
 10
1984.390211727888
 20
1110.62617722797
 10
1984.390211727888
 20
1100.416083078825
 10
1980.467332276146
 20
1100.416083078825
 42
0.3413058790982946
 10
1975.660775743446
 20
1096.000542127171
  0
HATCH
  5
369
330
1F
100
AcDbEntity
  8
0
 48
0.01
100
AcDbHatch
 10
0.0
 20
0.0
 30
0.0
210
0.0
220
0.0
230
1.0
  2
SOLID
 70
     1
 71
     0
 91
        1
 92
        7
 72
     1
 73
     1
 93
       18
 10
1943.238420707709
 20
1110.031827143812
 42
0.0
 10
1926.383294759499
 20
1110.031827143812
 42
0.6353853386189156
 10
1914.00723978011
 20
1083.121354338379
 42
0.2289202173365143
 10
1931.290863006701
 20
1078.883535768606
 42
0.0
 10
1931.290863006701
 20
1088.420646188551
 42
-0.3049204153943832
 10
1922.160552697591
 20
1089.9682116553
 42
-0.6155147312710259
 10
1926.894964567121
 20
1099.727813887737
 42
0.0
 10
1932.4290174145
 20
1099.727813887737
 42
0.0
 10
1932.4290174145
 20
1078.511309498989
 42
0.0
 10
1956.389353053566
 20
1078.511309498989
 42
0.0
 10
1956.389353053566
 20
1093.604190140351
 42
-0.454745117684773
 10
1961.309660370034
 20
1099.813442960845
 42
0.0
 10
1965.214236608257
 20
1099.813442960845
 42
0.0
 10
1965.214236608257
 20
1110.247869334293
 42
0.1398003542089238
 10
1951.89651172623
 20
1108.076889229127
 42
0.2371211591682391
 10
1945.017748593969
 20
1099.09900427513
 42
0.0
 10
1945.017748593969
 20
1088.582521306227
 42
0.0
 10
1943.238420707709
 20
1088.582521306227
 42
0.0
 97
        0
 75
     1
 76
     1
 47
0.1121286295065503
 98
        1
 10
1938.516842770301
 20
1097.858666790264
450
        0
451
        0
460
0.0
461
0.0
452
        0
462
0.0
453
        2
463
0.0
 63
     5
421
      255
463
1.0
 63
     2
421
 16776960
470
LINEAR
1001
GradientColor1ACI
1070
     5
1001
GradientColor2ACI
1070
     2
1001
ACAD
1010
0.0
1020
0.0
1030
0.0
  0
LWPOLYLINE
  5
36A
102
{ACAD_REACTORS
330
366
102
}
330
1F
100
AcDbEntity
  8
0
 48
0.01
100
AcDbPolyline
 90
       20
 70
     0
 43
0.0
 10
1926.634477921209
 20
1110.03182714384
 42
0.6407867916736249
 10
1914.00723978011
 20
1083.121354338407
 42
0.2289202173365143
 10
1931.290863006701
 20
1078.883535768634
 10
1931.290863006701
 20
1088.420646188579
 42
-0.3049204153943832
 10
1922.160552697591
 20
1089.968211655327
 42
-0.6155147312710236
 10
1926.894964567121
 20
1099.72781388775
 10
1932.4290174145
 20
1099.72781388775
 10
1932.4290174145
 20
1078.511309499017
 10
1956.389353053566
 20
1078.511309499017
 10
1956.389353053566
 20
1095.522224151414
 42
-0.3481766266298435
 10
1961.309660370034
 20
1099.81344296086
 10
1965.214236608257
 20
1099.81344296086
 10
1965.214236608257
 20
1110.41219167282
 10
1962.642559273831
 20
1110.41219167282
 42
0.1131811881261881
 10
1951.89651172623
 20
1108.076889229141
 42
0.2371211591682408
 10
1945.017748593969
 20
1099.099004275158
 10
1945.017748593969
 20
1088.582521306268
 10
1943.238420707709
 20
1088.582521306268
 10
1943.238420707709
 20
1110.03182714384
 10
1926.383294759499
 20
1110.03182714384
  0
LWPOLYLINE
  5
36B
102
{ACAD_REACTORS
330
366
102
}
330
1F
100
AcDbEntity
  8
0
 48
0.01
100
AcDbPolyline
 90
       18
 70
     1
 43
0.0
 10
1892.210733586599
 20
1100.462083448311
 42
0.2272277610263213
 10
1898.016257963194
 20
1103.218165652959
 42
0.1683594271327844
 10
1900.493703689538
 20
1110.03182714384
 10
1911.134946591919
 20
1110.03182714384
 42
-0.0331491172199263
 10
1909.601071144056
 20
1102.103839767931
 42
-0.128995016605472
 10
1905.860858190035
 20
1095.707635609587
 42
-0.1617579719816668
 10
1909.335150812947
 20
1089.334079729553
 42
-0.0640067649695244
 10
1910.10512264397
 20
1082.429823464834
 10
1910.10512264397
 20
1078.511309499017
 10
1900.130180706633
 20
1078.511309499017
 10
1900.130180706633
 20
1082.429823464834
 42
0.1410855045782453
 10
1898.555754351373
 20
1087.820803046895
 42
0.2275062033354094
 10
1895.289993839437
 20
1089.331126642781
 10
1892.210733586599
 20
1089.331126642781
 10
1892.210733586599
 20
1078.511309499017
 10
1881.385671990148
 20
1078.511309499017
 10
1881.385671990148
 20
1114.795043067279
 10
1892.210733586599
 20
1114.795043067279
  0
MTEXT
  5
36C
330
1F
100
AcDbEntity
  8
0
 48
0.01
100
AcDbMText
 10
2045.876996088502
 20
1113.42344448264
 30
0.0
 40
2.717548651889444
 41
3.15481405195588
 46
0.0
 71
     1
 72
     5
  1
R
 73
     1
 44
1.0
101
Embedded Object
 70
     1
 10
1.0
 20
0.0
 30
0.0
 11
2045.876996088502
 21
1113.42344448264
 31
0.0
 40
3.15481405195588
 41
0.0
 42
1.811699101259629
 43
2.717548651889444
 71
     2
 72
     1
 44
3.15481405195588
 45
27.17548651889447
 73
     0
 74
     0
 46
0.0
  0
CIRCLE
  5
36D
330
1F
100
AcDbEntity
  8
0
 48
0.01
100
AcDbCircle
 10
2046.7894697068
 20
1112.029382910886
 30
0.0
 40
2.656783313569305
  0
MTEXT
  5
36E
330
1F
100
AcDbEntity
  8
0
100
AcDbMText
 10
1881.49904687509
 20
1070.519630940512
 30
0.0
 40
11.40542061382427
 41
233.6918793793638
 46
0.0
 71
     1
 72
     5
  1
{\fArial|b0|i0|c0|p34;INSPIRED FOR LIVING}
 73
     1
 44
1.0
101
Embedded Object
 70
     1
 10
1.0
 20
0.0
 30
0.0
 11
1881.49904687509
 21
1070.519630940512
 31
0.0
 40
233.6918793793638
 41
0.0
 42
167.5025278414983
 43
11.8021985478659
 71
     2
 72
     1
 44
233.6918793793638
 45
1.425677576728034
 73
     0
 74
     0
 46
0.0
  0
MTEXT
  5
36F
330
1F
100
AcDbEntity
  8
0
100
AcDbMText
 10
1880.656087502387
 20
1195.763493677634
 30
0.0
 40
20.0
 41
455.5328356415318
 46
0.0
 71
     1
 72
     5
  1
{\fArial|b0|i0|c0|p34;Undermount cut-out}
 73
     1
 44
1.0
101
Embedded Object
 70
     1
 10
1.0
 20
0.0
 30
0.0
 11
1880.656087502387
 21
1195.763493677634
 31
0.0
 40
455.5328356415318
 41
0.0
 42
244.5293315143247
 43
20.34106412005457
 71
     2
 72
     1
 44
455.5328356415318
 45
12.5
 73
     0
 74
     0
 46
0.0
  0
MTEXT
  5
370
330
1F
100
AcDbEntity
  8
0
  6
ByBlock
370
    -3
100
AcDbMText
 10
1882.268399115876
 20
1034.717851513935
 30
0.0
 40
15.0
 41
398.975544590488
 46
0.0
 71
     1
 72
     5
  1
{\fArial|b0|i0|c0|p34;CCU400\PUndermount Single Bowl Stainless Steel Bathroom Sink \P\P\H0.8x;www.karran.com\PCustomer Service: (866) 452-7726}
 73
     1
 44
1.0
101
Embedded Object
 70
     1
 10
1.0
 20
0.0
 30
0.0
 11
1882.268399115876
 21
1034.717851513935
 31
0.0
 40
398.975544590488
 41
0.0
 42
371.9406548431106
 43
137.5
 71
     2
 72
     1
 44
398.975544590488
 45
12.5
 73
     0
 74
     0
 46
0.0
  0
MTEXT
  5
371
330
1F
100
AcDbEntity
  8
0
  6
ByBlock
370
    -3
100
AcDbMText
 10
2269.38470542556
 20
1202.088052214297
 30
0.0
 40
12.0
 41
305.7223420132034
 46
0.0
 71
     1
 72
     5
  1
{\fArial|b0|i0|c0|p34;Failure to use the proper template will void your warranty and may prevent proper installation. If you have any questions, please contact our customer care team prior to making any cuts in the countertop.}
 73
     1
 44
1.0
101
Embedded Object
 70
     1
 10
1.0
 20
0.0
 30
0.0
 11
2269.38470542556
 21
1202.088052214297
 31
0.0
 40
305.7223420132034
 41
0.0
 42
301.4733969986358
 43
115.5361527967258
 71
     2
 72
     1
 44
305.7223420132034
 45
12.5
 73
     0
 74
     0
 46
0.0
  0
DIMENSION
  5
3B1
330
1F
100
AcDbEntity
  8
0
 62
     2
100
AcDbDimension
280
     0
  2
*D21
 10
2497.324727431708
 20
1722.672262336233
 30
0.0
 11
2215.824727431707
 21
1734.890543373068
 31
0.0
 70
    32
  1
563 mm
 71
     5
 42
563.0000000000014
 73
     0
 74
     0
 75
     0
  3
D mm 1.1
100
AcDbAlignedDimension
 13
1934.324727431707
 23
1632.969967279587
 33
0.0
 14
2497.324727431708
 24
1632.969967279588
 34
0.0
100
AcDbRotatedDimension
  0
DIMENSION
  5
3B2
330
1F
100
AcDbEntity
  8
0
 62
     2
370
    18
100
AcDbDimension
280
     0
  2
*D19
 10
1809.999559325355
 20
1257.617585657145
 30
0.0
 11
1797.78127828852
 21
1439.117585657145
 31
0.0
 70
    32
  1
363 mm
 71
     5
 42
363.0000000000005
 73
     0
 74
     0
 75
     0
  3
D mm 1.1
100
AcDbAlignedDimension
 13
1917.213359763004
 23
1620.617585657145
 33
0.0
 14
1907.945963185727
 24
1257.617585657145
 34
0.0
 50
90.0
100
AcDbRotatedDimension
  0
MULTILEADER
  5
3B3
330
1F
100
AcDbEntity
  8
0
160
               464
310
D0010000180000000C00000016000000000000C00C00000033000000000000000C00000013000000993A00000C00000033000000000000000C00000010000000000000000C00000016000000000000C00C00000017000000050000000C00000012000000FF7F00000C00000013000000010000000C00000014000000010000
310
00540000000700000003000000240EC94499A5A140AADF5F6878CE93400000000000000000CFB873EF43A2A140AADF5F6878A6934000000000000000007A631E9AEE9EA140AADF5F6878CE934000000000000000000C00000014000000010000000C00000013000000891300003C0000000600000002000000CFB873EF43A2
310
A140AADF5F6878CE93400000000000000000CFB873EF43A2A140C67DFDBE453B944000000000000000000C00000013000000112700003C0000000600000002000000CFB873EF43A2A140C67DFDBE453B94400000000000000000F7E69DF40AFCA040C67DFDBE453B944000000000000000000C00000016000000000000C00C
310
00000012000000FF7F00000C00000017000000000000000C000000130000009A3A00000C00000016000000000000C00C00000012000000FF7F00000C00000017000000FDFFFFFF0C0000003300000000000000
370
    -3
100
AcDbMLeader
270
     2
300
CONTEXT_DATA{
 40
1.0
 10
2170.021397528118
 20
1294.818111382295
 30
0.0
 41
4.0
140
10.0
145
2.0
174
     1
175
     1
176
     2
177
     0
290
     1
304

 11
0.0
 21
0.0
 31
1.0
340
11
 12
2172.021397528117
 22
1296.818111382295
 32
0.0
 13
1.0
 23
0.0
 33
0.0
 42
0.0
 43
0.0
 44
0.0
 45
1.0
170
     1
 90
-1073741824
171
     3
172
     5
 91
-1073741824
141
0.0
 92
        0
291
     0
292
     0
173
     0
293
     0
142
0.0
143
0.0
294
     0
295
     0
296
     0
110
2257.132686249075
120
1257.617585657145
130
0.0
111
1.0
121
0.0
131
0.0
112
0.0
122
1.0
132
0.0
297
     0
302
LEADER{
290
     1
291
     1
 10
2257.132686249075
 20
1294.818111382295
 30
0.0
 11
-1.0
 21
0.0
 31
0.0
 90
        0
 40
83.11128872095645
304
LEADER_LINE{
 10
2257.132686249075
 20
1257.617585657145
 30
0.0
 91
        0
305
}
271
     0
303
}
272
     9
273
     9
301
}
340
29F
 90
   279682
170
     1
 91
-1073741824
341
14
171
     5
290
     1
291
     1
 41
8.0
 42
10.0
172
     2
343
11
173
     1
 95
        1
174
     1
175
     2
 92
-1056964608
292
     0
 93
-1056964608
 10
1.0
 20
1.0
 30
1.0
 43
0.0
176
     0
293
     0
294
     0
178
     0
179
     3
 45
1.0
271
     0
272
     9
273
     9
295
     0
1001
ACAD_MLEADERVER
1070
     2
  0
MTEXT
  5
3B4
330
1F
100
AcDbEntity
  8
0
370
    -3
100
AcDbMText
 10
2185.236109302914
 20
1315.103933478999
 30
0.0
 40
12.0
 41
201.1158221863448
 46
0.0
 71
     1
 72
     5
  1
\A1;{\fArial|b0|i0|c0|p34;Cut Line}
 73
     1
 44
1.0
101
Embedded Object
 70
     1
 10
1.0
 20
0.0
 30
0.0
 11
2185.236109302914
 21
1315.103933478999
 31
0.0
 40
201.1158221863448
 41
0.0
 42
60.90859481582537
 43
12.40927694406548
 71
     2
 72
     1
 44
201.1158221863448
 45
12.5
 73
     0
 74
     0
 46
30.41614051781163
  0
DIMENSION
  5
3B5
330
1F
100
AcDbEntity
  8
0
 62
     2
100
AcDbDimension
280
     0
  2
*D20
 10
1947.432111684544
 20
1605.840996812919
 30
0.0
 11
1831.774925361328
 21
1665.84201736193
 31
0.0
 70
   164
  1
R11.5 mm
 71
     5
 42
14.9999999999959
 73
     0
 74
     0
 75
     0
  3
D mm 1.1
100
AcDbRadialDimension
 15
1937.692999448061
 25
1617.24931364079
 35
0.0
 40
0.0
1001
ACAD_DSTYLE_DIMRADIAL_EXTENSION
1070
   387
1070
     1
1070
   388
1040
1.570796326794896
1070
   390
1040
3.141592653589793
  0
VIEWPORT
  5
482
102
{ACAD_XDICTIONARY
360
483
102
}
330
D6
100
AcDbEntity
 67
     1
  8
0
100
AcDbViewport
 10
128.5
 20
97.5
 30
0.0
 40
391.129375
 41
222.18
 68
     1
 69
     1
 12
128.5
 22
97.5
 13
0.0
 23
0.0
 14
0.5
 24
0.5
 15
0.5
 25
0.5
 16
0.0
 26
0.0
 36
1.0
 17
0.0
 27
0.0
 37
0.0
 42
50.0
 43
0.0
 44
0.0
 45
222.18
 50
0.0
 51
0.0
 72
  1000
 90
   819232
  1

281
     0
 71
     1
 74
     0
110
0.0
120
0.0
130
0.0
111
1.0
121
0.0
131
0.0
112
0.0
122
1.0
132
0.0
 79
     0
146
0.0
170
     0
 61
     5
348
F5
292
     1
282
     1
141
0.0
142
0.0
 63
   250
421
  3355443
  0
VIEWPORT
  5
486
102
{ACAD_XDICTIONARY
360
487
102
}
330
D6
100
AcDbEntity
 67
     1
  8
0
100
AcDbViewport
 10
128.5
 20
97.5
 30
0.0
 40
205.6
 41
156.0
 68
     2
 69
     2
 12
2169.348573920047
 22
1323.756789530814
 13
0.0
 23
0.0
 14
10.0
 24
10.0
 15
10.0
 25
10.0
 16
0.0
 26
0.0
 36
1.0
 17
0.0
 27
0.0
 37
0.0
 42
50.0
 43
0.0
 44
0.0
 45
861.5877527969665
 50
0.0
 51
0.0
 72
  1000
 90
   557152
  1

281
     0
 71
     1
 74
     0
110
0.0
120
0.0
130
0.0
111
1.0
121
0.0
131
0.0
112
0.0
122
1.0
132
0.0
 79
     0
146
0.0
170
     0
 61
     5
348
F5
292
     1
282
     1
141
0.0
142
0.0
 63
   250
421
  3355443
361
489
  0
ENDSEC
  0
SECTION
  2
OBJECTS
  0
DICTIONARY
  5
C
330
0
100
AcDbDictionary
281
     1
  3
ACAD_CIP_PREVIOUS_PRODUCT_INFO
350
280
  3
ACAD_COLOR
350
6B
  3
ACAD_DETAILVIEWSTYLE
350
272
  3
ACAD_GROUP
350
D
  3
ACAD_LAST_SAVED_VERSION_INFO
350
491
  3
ACAD_LAYOUT
350
1A
  3
ACAD_MATERIAL
350
6A
  3
ACAD_MLEADERSTYLE
350
12D
  3
ACAD_MLINESTYLE
350
17
  3
ACAD_PLOTSETTINGS
350
19
  3
ACAD_PLOTSTYLENAME
350
E
  3
ACAD_SCALELIST
350
10C
  3
ACAD_SECTIONVIEWSTYLE
350
273
  3
ACAD_TABLESTYLE
350
7E
  3
ACAD_VISUALSTYLE
350
EF
  3
ACDB_RECOMPOSE_DATA
350
495
  3
AcDbVariableDictionary
350
5E
  3
AEC_PROPERTY_SET_DEFS
350
2BE
  3
GCAD_REPLACEFONT
350
268
  0
SUN
  5
26D
330
EA
100
AcDbSun
 90
        1
290
     1
 63
     7
421
 16777215
 40
1.0
291
     1
 91
  2455826
 92
 54000000
292
     0
 70
     0
 71
   256
280
     1
  0
DICTIONARY
  5
2A0
330
2
100
AcDbDictionary
280
     1
281
     1
  3
ACAD_LAYERSTATES
360
2A1
  0
DICTIONARY
  5
13C
330
10
100
AcDbDictionary
280
     1
281
     1
  3
ADSK_XREC_LAYER_RECONCILED
360
251
  0
DICTIONARY
  5
1B3
330
1F
100
AcDbDictionary
280
     1
281
     1
  3
ACAD_SORTENTS
360
1B4
  0
DICTIONARY
  5
2BA
330
2A2
100
AcDbDictionary
280
     1
281
     1
  3
ACAD_SORTENTS
360
2BB
  0
DICTIONARY
  5
471
330
470
100
AcDbDictionary
280
     1
281
     1
  3
ASDK_XREC_ANNOTATION_SCALE_INFO
360
472
  0
DICTIONARY
  5
475
330
474
100
AcDbDictionary
280
     1
281
     1
  3
ASDK_XREC_ANNOTATION_SCALE_INFO
360
476
  0
SUN
  5
477
330
474
100
AcDbSun
 90
        1
290
     1
 63
     7
421
 16777215
 40
1.0
291
     1
 91
  2455826
 92
 54000000
292
     0
 70
     0
 71
   256
280
     1
  0
DICTIONARY
  5
483
330
482
100
AcDbDictionary
280
     1
281
     1
  3
ASDK_XREC_ANNOTATION_SCALE_INFO
360
484
  0
DICTIONARY
  5
487
330
486
100
AcDbDictionary
280
     1
281
     1
  3
ASDK_XREC_ANNOTATION_SCALE_INFO
360
488
  0
SUN
  5
489
330
486
100
AcDbSun
 90
        1
290
     1
 63
     7
421
 16777215
 40
1.0
291
     1
 91
  2455826
 92
 54000000
292
     0
 70
     0
 71
   256
280
     1
  0
XRECORD
  5
280
102
{ACAD_REACTORS
330
C
102
}
330
C
100
AcDbXrecord
280
     1
300
ACD
300
2025
300

  0
DICTIONARY
  5
6B
102
{ACAD_REACTORS
330
C
102
}
330
C
100
AcDbDictionary
281
     1
  0
DICTIONARY
  5
272
102
{ACAD_REACTORS
330
C
102
}
330
C
100
AcDbDictionary
281
     1
  3
Metric50
350
27A
  0
DICTIONARY
  5
D
102
{ACAD_REACTORS
330
C
102
}
330
C
100
AcDbDictionary
281
     1
  0
XRECORD
  5
491
102
{ACAD_REACTORS
330
C
102
}
330
C
100
AcDbXrecord
280
     1
300
{9801B1C8-0C9E-EF47-8B39-24C7BF6596EA}
301
{CE99A0BE-1F72-8840-8059-5F55F5CEC486}
302
{9801B1C8-0C9E-EF47-8B39-24C7BF6596EA}
303
C:\Users\ahary\Desktop\IM\Installation Guides - Bathroom Sinks\ALL DONE - Cinox\DXF\CCU400.dxf
  0
DICTIONARY
  5
1A
102
{ACAD_REACTORS
330
C
102
}
330
C
100
AcDbDictionary
281
     1
  3
Model
350
22
  3
布局1
350
D3
  3
布局2
350
D7
  0
DICTIONARY
  5
6A
102
{ACAD_REACTORS
330
C
102
}
330
C
100
AcDbDictionary
281
     1
  3
ByBlock
350
ED
  3
ByLayer
350
EC
  3
Global
350
EE
  0
DICTIONARY
  5
12D
102
{ACAD_REACTORS
330
C
102
}
330
C
100
AcDbDictionary
281
     1
  3
Annotative
350
13B
  3
leader
350
29F
  3
Standard
350
12E
  0
DICTIONARY
  5
17
102
{ACAD_REACTORS
330
C
102
}
330
C
100
AcDbDictionary
281
     1
  3
Standard
350
18
  0
DICTIONARY
  5
19
102
{ACAD_REACTORS
330
C
102
}
330
C
100
AcDbDictionary
281
     1
  0
ACDBDICTIONARYWDFLT
  5
E
102
{ACAD_REACTORS
330
C
102
}
330
C
100
AcDbDictionary
281
     1
  3
Normal
350
F
100
AcDbDictionaryWithDefault
340
F
  0
DICTIONARY
  5
10C
102
{ACAD_REACTORS
330
C
102
}
330
C
100
AcDbDictionary
281
     1
  3
A0
350
10D
  3
A1
350
188
  3
A2
350
189
  3
A3
350
18A
  3
A4
350
18B
  3
A5
350
18C
  3
A6
350
18D
  3
A7
350
18E
  3
A8
350
18F
  3
A9
350
190
  3
B0
350
191
  3
B1
350
192
  3
B2
350
193
  3
B3
350
194
  3
B4
350
195
  3
B5
350
196
  3
B6
350
197
  3
B7
350
198
  3
B8
350
199
  3
B9
350
19A
  3
C0
350
19B
  3
C1
350
19C
  3
C2
350
19D
  3
C3
350
19E
  3
C4
350
19F
  3
C5
350
1A0
  3
C6
350
1A1
  3
C7
350
1A2
  3
C8
350
1A3
  3
C9
350
1A4
  3
D0
350
1A5
  3
D1
350
1A6
  3
D2
350
1A7
  0
DICTIONARY
  5
273
102
{ACAD_REACTORS
330
C
102
}
330
C
100
AcDbDictionary
281
     1
  3
Metric50
350
279
  0
DICTIONARY
  5
7E
102
{ACAD_REACTORS
330
C
102
}
330
C
100
AcDbDictionary
281
     1
  3
Standard
350
7F
  0
DICTIONARY
  5
EF
102
{ACAD_REACTORS
330
C
102
}
330
C
100
AcDbDictionary
281
     1
  3
2dWireframe
350
F5
  3
3D Hidden
350
F7
  3
3dWireframe
350
F6
  3
Basic
350
F4
  3
Brighten
350
FB
  3
ColorChange
350
FF
  3
Conceptual
350
F8
  3
Dim
350
FA
  3
EdgeColorOff
350
262
  3
Facepattern
350
FE
  3
Flat
350
F0
  3
FlatWithEdges
350
F1
  3
Gouraud
350
F2
  3
GouraudWithEdges
350
F3
  3
Hidden
350
25F
  3
JitterOff
350
260
  3
Linepattern
350
FD
  3
OverhangOff
350
261
  3
Realistic
350
F9
  3
Shaded
350
267
  3
Shaded with edges
350
266
  3
Shades of Gray
350
263
  3
Sketchy
350
264
  3
Thicken
350
FC
  3
Wireframe
350
25E
  3
X-Ray
350
265
  0
XRECORD
  5
495
102
{ACAD_REACTORS
330
C
102
}
330
C
100
AcDbXrecord
280
     1
 90
        1
330
7F
  0
DICTIONARY
  5
5E
102
{ACAD_REACTORS
330
C
102
}
330
C
100
AcDbDictionary
281
     1
  3
CANNOSCALE
350
146
  3
CMLEADERSTYLE
350
145
  3
CTABLESTYLE
350
84
  3
CVIEWDETAILSTYLE
350
492
  3
CVIEWSECTIONSTYLE
350
493
  3
DIMASSOC
350
5F
  3
HIDETEXT
350
63
  0
DICTIONARY
  5
2BE
102
{ACAD_REACTORS
330
C
102
}
330
C
100
AcDbDictionary
281
     1
  0
DICTIONARY
  5
268
102
{ACAD_REACTORS
330
C
102
}
330
C
100
AcDbDictionary
281
     1
  3
*A1
350
269
  0
DICTIONARY
  5
2A1
102
{ACAD_REACTORS
330
2A0
102
}
330
2A0
100
AcDbDictionary
281
     1
  0
XRECORD
  5
251
102
{ACAD_REACTORS
330
13C
102
}
330
13C
100
AcDbXrecord
280
     1
290
     1
  0
SORTENTSTABLE
  5
1B4
102
{ACAD_REACTORS
330
1B3
102
}
330
1B3
100
AcDbSortentsTable
330
1F
  0
SORTENTSTABLE
  5
2BB
102
{ACAD_REACTORS
330
2BA
102
}
330
2BA
100
AcDbSortentsTable
330
2A2
  0
XRECORD
  5
472
102
{ACAD_REACTORS
330
471
102
}
330
471
100
AcDbXrecord
280
     1
 90
        1
340
10D
  0
XRECORD
  5
476
102
{ACAD_REACTORS
330
475
102
}
330
475
100
AcDbXrecord
280
     1
 90
        1
340
10D
  0
XRECORD
  5
484
102
{ACAD_REACTORS
330
483
102
}
330
483
100
AcDbXrecord
280
     1
 90
        1
340
10D
  0
XRECORD
  5
488
102
{ACAD_REACTORS
330
487
102
}
330
487
100
AcDbXrecord
280
     1
 90
        1
340
10D
  0
ACDBDETAILVIEWSTYLE
  5
27A
102
{ACAD_REACTORS
330
272
102
}
330
272
100
AcDbModelDocViewStyle
 70
     0
  3
Metric50
290
     0
300
Metric50
 90
        0
100
AcDbDetailViewStyle
 70
     0
 71
     0
 90
        3
 71
     1
340
11
 62
   256
 40
5.0
340
0
 62
   256
 40
5.0
300

 40
0.0
280
     1
 71
     2
340
16
 90
       25
 62
   256
 71
     3
340
11
 62
   256
 40
5.0
 90
        0
 40
15.0
 90
        1
300
%<\AcVar ViewDetailId>% (%<\AcVar ViewScale \f "%sn">%)
 71
     4
340
16
 90
       25
 62
   256
340
16
 90
       25
 62
   256
280
     0
  0
LAYOUT
  5
22
102
{ACAD_REACTORS
330
1A
102
}
330
1A
100
AcDbPlotSettings
  1

  2
none_device
  4
ISO_A4_(210.00_x_297.00_MM)
  6

 40
7.5
 41
20.0
 42
7.5
 43
20.0
 44
210.0
 45
297.0
 46
11.54999923706054
 47
-13.65000009536743
 48
0.0
 49
0.0
140
0.0
141
0.0
142
1.0
143
8.704084754739808
 70
 11952
 72
     1
 73
     0
 74
     0
  7

 75
     0
147
0.1148885871608098
 76
     0
 77
     2
 78
   300
148
0.0
149
0.0
100
AcDbLayout
  1
Model
 70
     1
 71
     0
 10
0.0
 20
0.0
 11
12.0
 21
9.0
 12
0.0
 22
0.0
 32
0.0
 14
0.0
 24
0.0
 34
0.0
 15
2507.324727431707
 25
1656.336852977531
 35
0.0
146
0.0
 13
0.0
 23
0.0
 33
0.0
 16
1.0
 26
0.0
 36
0.0
 17
0.0
 27
1.0
 37
0.0
 76
     0
330
1F
331
EA
1001
ACAD_PSEXT
1000
None
1000
None
1000
Not applicable
1000
The layout will not be plotted unless a new plotter configuration name is selected.
1070
     0
  0
LAYOUT
  5
D3
102
{ACAD_REACTORS
330
1A
102
}
330
1A
100
AcDbPlotSettings
  1

  2
none_device
  4
ISO_A4_(210.00_x_297.00_MM)
  6

 40
7.5
 41
20.0
 42
7.5
 43
20.0
 44
210.0
 45
297.0
 46
0.0
 47
0.0
 48
0.0
 49
0.0
140
0.0
141
0.0
142
1.0
143
1.0
 70
   688
 72
     1
 73
     1
 74
     5
  7

 75
    16
147
1.0
 76
     0
 77
     2
 78
   300
148
0.0
149
0.0
100
AcDbLayout
  1
布局1
 70
     1
 71
     1
 10
-20.0
 20
-7.5
 11
277.0
 21
202.5
 12
0.0
 22
0.0
 32
0.0
 14
25.69999999999999
 24
19.5
 34
0.0
 15
231.3
 25
175.5
 35
0.0
146
0.0
 13
0.0
 23
0.0
 33
0.0
 16
1.0
 26
0.0
 36
0.0
 17
0.0
 27
1.0
 37
0.0
 76
     0
330
D2
331
470
1001
ACAD_PSEXT
1000
None
1000
None
1000
Not applicable
1000
The layout will not be plotted unless a new plotter configuration name is selected.
1070
     0
  0
LAYOUT
  5
D7
102
{ACAD_REACTORS
330
1A
102
}
330
1A
100
AcDbPlotSettings
  1

  2
none_device
  4
ISO_A4_(210.00_x_297.00_MM)
  6

 40
7.5
 41
20.0
 42
7.5
 43
20.0
 44
210.0
 45
297.0
 46
0.0
 47
0.0
 48
0.0
 49
0.0
140
0.0
141
0.0
142
1.0
143
1.0
 70
   688
 72
     1
 73
     1
 74
     5
  7

 75
    16
147
1.0
 76
     0
 77
     2
 78
   300
148
0.0
149
0.0
100
AcDbLayout
  1
布局2
 70
     1
 71
     2
 10
-20.0
 20
-7.5
 11
277.0
 21
202.5
 12
0.0
 22
0.0
 32
0.0
 14
25.69999999999999
 24
19.5
 34
0.0
 15
231.3
 25
175.5
 35
0.0
146
0.0
 13
0.0
 23
0.0
 33
0.0
 16
1.0
 26
0.0
 36
0.0
 17
0.0
 27
1.0
 37
0.0
 76
     0
330
D6
331
482
1001
ACAD_PSEXT
1000
None
1000
None
1000
Not applicable
1000
The layout will not be plotted unless a new plotter configuration name is selected.
1070
     0
  0
MATERIAL
  5
ED
102
{ACAD_REACTORS
330
6A
102
}
330
6A
100
AcDbMaterial
  1
ByBlock
 94
       63
  0
MATERIAL
  5
EC
102
{ACAD_REACTORS
330
6A
102
}
330
6A
100
AcDbMaterial
  1
ByLayer
 94
       63
  0
MATERIAL
  5
EE
102
{ACAD_REACTORS
330
6A
102
}
330
6A
100
AcDbMaterial
  1
Global
 43
0.0007999999797903
 43
0.0
 43
0.0
 43
0.0
 43
0.0
 43
0.0007999999797903
 43
0.0
 43
0.0
 43
0.0
 43
0.0
 43
1.0
 43
0.0
 43
0.0
 43
0.0
 43
0.0
 43
1.0
 49
0.0007999999797903
 49
0.0
 49
0.0
 49
0.0
 49
0.0
 49
0.0007999999797903
 49
0.0
 49
0.0
 49
0.0
 49
0.0
 49
1.0
 49
0.0
 49
0.0
 49
0.0
 49
0.0
 49
1.0
142
0.0007999999797903
142
0.0
142
0.0
142
0.0
142
0.0
142
0.0007999999797903
142
0.0
142
0.0
142
0.0
142
0.0
142
1.0
142
0.0
142
0.0
142
0.0
142
0.0
142
1.0
144
0.0007999999797903
144
0.0
144
0.0
144
0.0
144
0.0
144
0.0007999999797903
144
0.0
144
0.0
144
0.0
144
0.0
144
1.0
144
0.0
144
0.0
144
0.0
144
0.0
144
1.0
 94
       63
1001
ACAD
1070
    -1
1070
     3
1070
     0
1000

1071
        0
1070
     0
  0
MLEADERSTYLE
  5
13B
102
{ACAD_REACTORS
330
12D
102
}
330
12D
100
AcDbMLeaderStyle
179
     2
170
     2
171
     1
172
     0
 90
        2
 40
0.0
 41
0.0
173
     1
 91
-1056964608
340
14
 92
       -2
290
     1
 42
2.0
291
     1
 43
8.0
  3
Standard
 44
4.0
300

342
11
174
     1
178
     1
175
     1
176
     0
 93
-1056964608
 45
4.0
292
     0
297
     0
 46
4.0
 94
-1056964608
 47
1.0
 49
1.0
140
1.0
293
     1
141
0.0
294
     1
177
     0
142
1.0
295
     0
296
     1
143
3.75
271
     0
272
     9
273
     9
298
     0
  0
MLEADERSTYLE
  5
29F
102
{ACAD_REACTORS
330
2B6
330
2B8
330
12D
330
3B3
102
}
330
12D
100
AcDbMLeaderStyle
179
     2
170
     2
171
     1
172
     0
 90
        2
 40
0.0
 41
0.0
173
     1
 91
-1023410174
340
14
 92
        5
290
     1
 42
2.0
291
     1
 43
8.0
  3
Standard
 44
10.0
300

342
11
174
     1
178
     1
175
     1
176
     0
 93
-1056964608
 45
4.0
292
     0
297
     0
 46
4.0
 94
-1056964608
 47
1.0
 49
1.0
140
1.0
293
     1
141
0.0
294
     1
177
     0
142
1.0
295
     0
296
     0
143
3.75
271
     0
272
     9
273
     9
298
     0
1001
ACAD_MLEADERVER
1070
     2
  0
MLEADERSTYLE
  5
12E
102
{ACAD_REACTORS
330
12D
102
}
330
12D
100
AcDbMLeaderStyle
179
     2
170
     2
171
     1
172
     0
 90
        2
 40
0.0
 41
0.0
173
     1
 91
-1056964608
340
14
 92
       -2
290
     1
 42
2.0
291
     1
 43
8.0
  3
Standard
 44
4.0
300

342
11
174
     1
178
     1
175
     1
176
     0
 93
-1056964608
 45
4.0
292
     0
297
     0
 46
4.0
 94
-1056964608
 47
1.0
 49
1.0
140
1.0
293
     1
141
0.0
294
     1
177
     0
142
1.0
295
     0
296
     0
143
3.75
271
     0
272
     9
273
     9
298
     0
  0
MLINESTYLE
  5
18
102
{ACAD_REACTORS
330
17
102
}
330
17
100
AcDbMlineStyle
  2
STANDARD
 70
     0
  3

 62
   256
 51
90.0
 52
90.0
 71
     2
 49
0.5
 62
   256
  6
BYLAYER
 49
-0.5
 62
   256
  6
BYLAYER
  0
ACDBPLACEHOLDER
  5
F
102
{ACAD_REACTORS
330
E
102
}
330
E
  0
SCALE
  5
10D
102
{ACAD_REACTORS
330
10C
102
}
330
10C
100
AcDbScale
 70
     0
300
1:1
140
1.0
141
1.0
290
     1
  0
SCALE
  5
188
102
{ACAD_REACTORS
330
10C
102
}
330
10C
100
AcDbScale
 70
     0
300
1:2
140
1.0
141
2.0
290
     0
  0
SCALE
  5
189
102
{ACAD_REACTORS
330
10C
102
}
330
10C
100
AcDbScale
 70
     0
300
1:4
140
1.0
141
4.0
290
     0
  0
SCALE
  5
18A
102
{ACAD_REACTORS
330
10C
102
}
330
10C
100
AcDbScale
 70
     0
300
1:5
140
1.0
141
5.0
290
     0
  0
SCALE
  5
18B
102
{ACAD_REACTORS
330
10C
102
}
330
10C
100
AcDbScale
 70
     0
300
1:8
140
1.0
141
8.0
290
     0
  0
SCALE
  5
18C
102
{ACAD_REACTORS
330
10C
102
}
330
10C
100
AcDbScale
 70
     0
300
1:10
140
1.0
141
10.0
290
     0
  0
SCALE
  5
18D
102
{ACAD_REACTORS
330
10C
102
}
330
10C
100
AcDbScale
 70
     0
300
1:16
140
1.0
141
16.0
290
     0
  0
SCALE
  5
18E
102
{ACAD_REACTORS
330
10C
102
}
330
10C
100
AcDbScale
 70
     0
300
1:20
140
1.0
141
20.0
290
     0
  0
SCALE
  5
18F
102
{ACAD_REACTORS
330
10C
102
}
330
10C
100
AcDbScale
 70
     0
300
1:30
140
1.0
141
30.0
290
     0
  0
SCALE
  5
190
102
{ACAD_REACTORS
330
10C
102
}
330
10C
100
AcDbScale
 70
     0
300
1:40
140
1.0
141
40.0
290
     0
  0
SCALE
  5
191
102
{ACAD_REACTORS
330
10C
102
}
330
10C
100
AcDbScale
 70
     0
300
1:50
140
1.0
141
50.0
290
     0
  0
SCALE
  5
192
102
{ACAD_REACTORS
330
10C
102
}
330
10C
100
AcDbScale
 70
     0
300
1:100
140
1.0
141
100.0
290
     0
  0
SCALE
  5
193
102
{ACAD_REACTORS
330
10C
102
}
330
10C
100
AcDbScale
 70
     0
300
2:1
140
2.0
141
1.0
290
     0
  0
SCALE
  5
194
102
{ACAD_REACTORS
330
10C
102
}
330
10C
100
AcDbScale
 70
     0
300
4:1
140
4.0
141
1.0
290
     0
  0
SCALE
  5
195
102
{ACAD_REACTORS
330
10C
102
}
330
10C
100
AcDbScale
 70
     0
300
8:1
140
8.0
141
1.0
290
     0
  0
SCALE
  5
196
102
{ACAD_REACTORS
330
10C
102
}
330
10C
100
AcDbScale
 70
     0
300
10:1
140
10.0
141
1.0
290
     0
  0
SCALE
  5
197
102
{ACAD_REACTORS
330
10C
102
}
330
10C
100
AcDbScale
 70
     0
300
100:1
140
100.0
141
1.0
290
     0
  0
SCALE
  5
198
102
{ACAD_REACTORS
330
10C
102
}
330
10C
100
AcDbScale
 70
     0
300
1/128" = 1'-0"
140
0.0078125
141
12.0
290
     0
  0
SCALE
  5
199
102
{ACAD_REACTORS
330
10C
102
}
330
10C
100
AcDbScale
 70
     0
300
1/64" = 1'-0"
140
0.015625
141
12.0
290
     0
  0
SCALE
  5
19A
102
{ACAD_REACTORS
330
10C
102
}
330
10C
100
AcDbScale
 70
     0
300
1/32" = 1'-0"
140
0.03125
141
12.0
290
     0
  0
SCALE
  5
19B
102
{ACAD_REACTORS
330
10C
102
}
330
10C
100
AcDbScale
 70
     0
300
1/16" = 1'-0"
140
0.0625
141
12.0
290
     0
  0
SCALE
  5
19C
102
{ACAD_REACTORS
330
10C
102
}
330
10C
100
AcDbScale
 70
     0
300
3/32" = 1'-0"
140
0.09375
141
12.0
290
     0
  0
SCALE
  5
19D
102
{ACAD_REACTORS
330
10C
102
}
330
10C
100
AcDbScale
 70
     0
300
1/8" = 1'-0"
140
0.125
141
12.0
290
     0
  0
SCALE
  5
19E
102
{ACAD_REACTORS
330
10C
102
}
330
10C
100
AcDbScale
 70
     0
300
3/16" = 1'-0"
140
0.1875
141
12.0
290
     0
  0
SCALE
  5
19F
102
{ACAD_REACTORS
330
10C
102
}
330
10C
100
AcDbScale
 70
     0
300
1/4" = 1'-0"
140
0.25
141
12.0
290
     0
  0
SCALE
  5
1A0
102
{ACAD_REACTORS
330
10C
102
}
330
10C
100
AcDbScale
 70
     0
300
3/8" = 1'-0"
140
0.375
141
12.0
290
     0
  0
SCALE
  5
1A1
102
{ACAD_REACTORS
330
10C
102
}
330
10C
100
AcDbScale
 70
     0
300
1/2" = 1'-0"
140
0.5
141
12.0
290
     0
  0
SCALE
  5
1A2
102
{ACAD_REACTORS
330
10C
102
}
330
10C
100
AcDbScale
 70
     0
300
3/4" = 1'-0"
140
0.75
141
12.0
290
     0
  0
SCALE
  5
1A3
102
{ACAD_REACTORS
330
10C
102
}
330
10C
100
AcDbScale
 70
     0
300
1" = 1'-0"
140
1.0
141
12.0
290
     0
  0
SCALE
  5
1A4
102
{ACAD_REACTORS
330
10C
102
}
330
10C
100
AcDbScale
 70
     0
300
1-1/2" = 1'-0"
140
1.5
141
12.0
290
     0
  0
SCALE
  5
1A5
102
{ACAD_REACTORS
330
10C
102
}
330
10C
100
AcDbScale
 70
     0
300
3" = 1'-0"
140
3.0
141
12.0
290
     0
  0
SCALE
  5
1A6
102
{ACAD_REACTORS
330
10C
102
}
330
10C
100
AcDbScale
 70
     0
300
6" = 1'-0"
140
6.0
141
12.0
290
     0
  0
SCALE
  5
1A7
102
{ACAD_REACTORS
330
10C
102
}
330
10C
100
AcDbScale
 70
     0
300
1'-0" = 1'-0"
140
12.0
141
12.0
290
     0
  0
ACDBSECTIONVIEWSTYLE
  5
279
102
{ACAD_REACTORS
330
273
102
}
330
273
100
AcDbModelDocViewStyle
 70
     0
  3
Metric50
290
     0
300
Metric50
 90
        0
100
AcDbSectionViewStyle
 70
     0
 71
     0
 90
      102
 71
     1
340
11
 62
   256
 40
5.0
340
0
340
0
 62
   256
 40
5.0
300
I, O, Q, S, X, Z
 40
10.0
 90
        0
 40
2.5
 90
        0
 71
     2
340
16
 90
       25
 62
   256
340
16
 90
       50
 62
   256
 40
5.0
 40
2.5
 40
5.0
 71
     3
340
11
 62
   256
 40
5.0
 90
        0
 40
15.0
 90
        1
300
%<\AcVar ViewSectionStartId>%-%<\AcVar ViewSectionEndId>% (%<\AcVar ViewScale \f "%sn">%)
 71
     4
 62
   256
 62
   257
300
ANSI31
 40
1.0
 90
        0
290
     0
290
     0
 90
        6
 40
0.0
 40
1.570796326794896
 40
0.2617993877991494
 40
1.308996938995747
 40
-0.2617993877991494
 40
1.832595714594046
  0
TABLESTYLE
  5
7F
102
{ACAD_XDICTIONARY
360
274
102
}
102
{ACAD_REACTORS
330
7E
102
}
330
7E
100
AcDbTableStyle
280
     0
  3
Standard
 70
     0
 71
     0
 40
1.5
 41
1.5
280
     0
281
     0
  7
Standard
140
4.5
170
     2
 62
     0
 63
     7
283
     0
 90
      512
 91
        0
  1

274
    -2
284
     1
 64
     0
275
    -2
285
     1
 65
     0
276
    -2
286
     1
 66
     0
277
    -2
287
     1
 67
     0
278
    -2
288
     1
 68
     0
279
    -2
289
     1
 69
     0
  7
Standard
140
6.0
170
     5
 62
     0
 63
     7
283
     0
 90
      512
 91
        0
  1

274
    -2
284
     1
 64
     0
275
    -2
285
     1
 65
     0
276
    -2
286
     1
 66
     0
277
    -2
287
     1
 67
     0
278
    -2
288
     1
 68
     0
279
    -2
289
     1
 69
     0
  7
Standard
140
4.5
170
     5
 62
     0
 63
     7
283
     0
 90
      512
 91
        0
  1

274
    -2
284
     1
 64
     0
275
    -2
285
     1
 65
     0
276
    -2
286
     1
 66
     0
277
    -2
287
     1
 67
     0
278
    -2
288
     1
 68
     0
279
    -2
289
     1
 69
     0
  0
VISUALSTYLE
  5
F5
102
{ACAD_REACTORS
330
EF
102
}
330
EF
100
AcDbVisualStyle
  2
2dWireframe
 70
     4
177
     3
291
     0
 70
    58
 90
        0
176
     1
 90
        2
176
     1
 90
        1
176
     1
 90
        0
176
     1
 40
0.6
176
     1
 40
30.0
176
     1
 62
     7
420
 16777215
176
     1
 90
        1
176
     1
 90
        4
176
     1
 62
     7
176
     1
 62
   257
176
     1
 90
        1
176
     1
 90
        1
176
     1
 40
1.0
176
     1
 90
        0
176
     1
 62
   257
176
     1
 40
1.0
176
     1
 90
        1
176
     1
 90
        6
176
     1
 90
        2
176
     1
 62
     7
176
     1
 90
        5
176
     1
 90
        0
176
     1
 90
        0
176
     1
290
     0
176
     1
 90
        1
176
     1
 40
0.0
176
     1
 90
        0
176
     1
290
     1
176
     1
290
     1
176
     1
290
     0
176
     1
290
     0
176
     1
290
     0
176
     1
290
     0
176
     1
290
     0
176
     1
290
     0
176
     1
290
     0
176
     1
 90
       50
176
     1
 40
0.0
176
     1
 40
1.0
176
     1
 90
        0
176
     1
 62
    18
176
     1
 90
       50
176
     1
 90
        3
176
     1
 62
     5
420
      255
176
     1
290
     0
176
     1
 90
       50
176
     1
 90
       50
176
     1
 90
       50
176
     1
290
     0
176
     1
 90
       50
176
     1
 62
   256
176
     0
 40
1.0
176
     0
 90
        2
176
     1
  1
strokes_ogs.tif
176
     1
290
     0
176
     1
 40
1.0
176
     1
 40
1.0
176
     1
  0
VISUALSTYLE
  5
F7
102
{ACAD_REACTORS
330
EF
102
}
330
EF
100
AcDbVisualStyle
  2
3D Hidden
 70
     6
177
     3
291
     0
 70
    58
 90
        1
176
     1
 90
        2
176
     1
 90
        2
176
     1
 90
        0
176
     1
 40
0.6
176
     1
 40
30.0
176
     1
 62
     7
420
 16777215
176
     1
 90
        2
176
     1
 90
        2
176
     1
 62
     7
176
     1
 62
   257
176
     1
 90
        2
176
     1
 90
        1
176
     1
 40
40.0
176
     1
 90
        0
176
     1
 62
   257
176
     1
 40
1.0
176
     1
 90
        1
176
     1
 90
        6
176
     1
 90
        2
176
     1
 62
     7
176
     1
 90
        3
176
     1
 90
        0
176
     1
 90
        0
176
     1
290
     0
176
     1
 90
        1
176
     1
 40
0.0
176
     1
 90
        0
176
     1
290
     0
176
     1
290
     1
176
     1
290
     1
176
     1
290
     0
176
     1
290
     0
176
     1
290
     0
176
     1
290
     0
176
     1
290
     0
176
     1
290
     0
176
     1
 90
       50
176
     1
 40
0.0
176
     1
 40
1.0
176
     1
 90
        0
176
     1
 62
    18
176
     1
 90
       50
176
     1
 90
        3
176
     1
 62
     5
420
      255
176
     1
290
     0
176
     1
 90
       50
176
     1
 90
       50
176
     1
 90
       50
176
     1
290
     0
176
     1
 90
       50
176
     1
 62
   256
176
     0
 40
1.0
176
     0
 90
        2
176
     1
  1
strokes_ogs.tif
176
     1
290
     0
176
     1
 40
1.0
176
     1
 40
1.0
176
     1
  0
VISUALSTYLE
  5
F6
102
{ACAD_REACTORS
330
EF
102
}
330
EF
100
AcDbVisualStyle
  2
3dWireframe
 70
     5
177
     3
291
     0
 70
    58
 90
        0
176
     1
 90
        2
176
     1
 90
        1
176
     1
 90
        0
176
     1
 40
0.6
176
     1
 40
30.0
176
     1
 62
     7
420
 16777215
176
     1
 90
        1
176
     1
 90
        4
176
     1
 62
     7
176
     1
 62
   257
176
     1
 90
        1
176
     1
 90
        1
176
     1
 40
1.0
176
     1
 90
        0
176
     1
 62
   257
176
     1
 40
1.0
176
     1
 90
        1
176
     1
 90
        6
176
     1
 90
        2
176
     1
 62
     7
176
     1
 90
        5
176
     1
 90
        0
176
     1
 90
        0
176
     1
290
     0
176
     1
 90
        1
176
     1
 40
0.0
176
     1
 90
        0
176
     1
290
     0
176
     1
290
     1
176
     1
290
     1
176
     1
290
     0
176
     1
290
     0
176
     1
290
     0
176
     1
290
     0
176
     1
290
     0
176
     1
290
     0
176
     1
 90
       50
176
     1
 40
0.0
176
     1
 40
1.0
176
     1
 90
        0
176
     1
 62
    18
176
     1
 90
       50
176
     1
 90
        3
176
     1
 62
     5
420
      255
176
     1
290
     0
176
     1
 90
       50
176
     1
 90
       50
176
     1
 90
       50
176
     1
290
     0
176
     1
 90
       50
176
     1
 62
   256
176
     0
 40
1.0
176
     0
 90
        2
176
     1
  1
strokes_ogs.tif
176
     1
290
     0
176
     1
 40
1.0
176
     1
 40
1.0
176
     1
  0
VISUALSTYLE
  5
F4
102
{ACAD_REACTORS
330
EF
102
}
330
EF
100
AcDbVisualStyle
  2
Basic
 70
     7
177
     3
291
     1
 70
    58
 90
        1
176
     1
 90
        0
176
     1
 90
        1
176
     1
 90
        0
176
     1
 40
0.6
176
     1
 40
30.0
176
     1
 62
     7
420
 16777215
176
     1
 90
        0
176
     1
 90
        4
176
     1
 62
     7
176
     1
 62
   257
176
     1
 90
        1
176
     1
 90
        1
176
     1
 40
1.0
176
     1
 90
        8
176
     1
 62
     7
176
     1
 40
1.0
176
     1
 90
        1
176
     1
 90
        6
176
     1
 90
        2
176
     1
 62
     7
176
     1
 90
        5
176
     1
 90
        0
176
     1
 90
        0
176
     1
290
     0
176
     1
 90
        1
176
     1
 40
0.0
176
     1
 90
        0
176
     1
290
     0
176
     1
290
     1
176
     1
290
     1
176
     1
290
     0
176
     1
290
     0
176
     1
290
     0
176
     1
290
     0
176
     1
290
     0
176
     1
290
     0
176
     1
 90
       50
176
     1
 40
0.0
176
     1
 40
1.0
176
     1
 90
        0
176
     1
 62
    18
176
     1
 90
       50
176
     1
 90
        3
176
     1
 62
     5
420
      255
176
     1
290
     0
176
     1
 90
       50
176
     1
 90
       50
176
     1
 90
       50
176
     1
290
     0
176
     1
 90
       50
176
     1
 62
   256
176
     0
 40
1.0
176
     0
 90
        2
176
     1
  1
strokes_ogs.tif
176
     1
290
     0
176
     1
 40
1.0
176
     1
 40
1.0
176
     1
  0
VISUALSTYLE
  5
FB
102
{ACAD_REACTORS
330
EF
102
}
330
EF
100
AcDbVisualStyle
  2
Brighten
 70
    12
177
     3
291
     1
 70
    58
 90
        2
176
     1
 90
        2
176
     1
 90
        1
176
     1
 90
        0
176
     1
 40
0.6
176
     1
 40
30.0
176
     1
 62
     7
420
 16777215
176
     1
 90
        1
176
     1
 90
        4
176
     1
 62
     7
176
     1
 62
   257
176
     1
 90
        1
176
     1
 90
        1
176
     1
 40
1.0
176
     1
 90
        8
176
     1
 62
     7
176
     1
 40
1.0
176
     1
 90
        1
176
     1
 90
        6
176
     1
 90
        2
176
     1
 62
     7
176
     1
 90
        5
176
     1
 90
        0
176
     1
 90
        0
176
     1
290
     0
176
     1
 90
        1
176
     1
 40
50.0
176
     1
 90
        0
176
     1
290
     0
176
     1
290
     1
176
     1
290
     1
176
     1
290
     0
176
     1
290
     0
176
     1
290
     0
176
     1
290
     0
176
     1
290
     0
176
     1
290
     0
176
     1
 90
       50
176
     1
 40
0.0
176
     1
 40
1.0
176
     1
 90
        0
176
     1
 62
    18
176
     1
 90
       50
176
     1
 90
        3
176
     1
 62
     5
420
      255
176
     1
290
     0
176
     1
 90
       50
176
     1
 90
       50
176
     1
 90
       50
176
     1
290
     0
176
     1
 90
       50
176
     1
 62
   256
176
     0
 40
1.0
176
     0
 90
        2
176
     1
  1
strokes_ogs.tif
176
     1
290
     0
176
     1
 40
1.0
176
     1
 40
1.0
176
     1
  0
VISUALSTYLE
  5
FF
102
{ACAD_REACTORS
330
EF
102
}
330
EF
100
AcDbVisualStyle
  2
ColorChange
 70
    16
177
     3
291
     1
 70
    58
 90
        2
176
     1
 90
        2
176
     1
 90
        3
176
     1
 90
        0
176
     1
 40
0.6
176
     1
 40
30.0
176
     1
 62
     8
420
  8421504
176
     1
 90
        1
176
     1
 90
        4
176
     1
 62
     7
176
     1
 62
   257
176
     1
 90
        1
176
     1
 90
        1
176
     1
 40
1.0
176
     1
 90
        8
176
     1
 62
     8
420
  8421504
176
     1
 40
1.0
176
     1
 90
        1
176
     1
 90
        6
176
     1
 90
        2
176
     1
 62
     7
176
     1
 90
        5
176
     1
 90
        0
176
     1
 90
        0
176
     1
290
     0
176
     1
 90
        1
176
     1
 40
0.0
176
     1
 90
        0
176
     1
290
     0
176
     1
290
     1
176
     1
290
     1
176
     1
290
     0
176
     1
290
     0
176
     1
290
     0
176
     1
290
     0
176
     1
290
     0
176
     1
290
     0
176
     1
 90
       50
176
     1
 40
0.0
176
     1
 40
1.0
176
     1
 90
        0
176
     1
 62
    18
176
     1
 90
       50
176
     1
 90
        3
176
     1
 62
     5
420
      255
176
     1
290
     0
176
     1
 90
       50
176
     1
 90
       50
176
     1
 90
       50
176
     1
290
     0
176
     1
 90
       50
176
     1
 62
   256
176
     0
 40
1.0
176
     0
 90
        2
176
     1
  1
strokes_ogs.tif
176
     1
290
     0
176
     1
 40
1.0
176
     1
 40
1.0
176
     1
  0
VISUALSTYLE
  5
F8
102
{ACAD_REACTORS
330
EF
102
}
330
EF
100
AcDbVisualStyle
  2
Conceptual
 70
     9
177
     3
291
     0
 70
    58
 90
        3
176
     1
 90
        2
176
     1
 90
        1
176
     1
 90
        0
176
     1
 40
0.6
176
     1
 40
30.0
176
     1
 62
     7
420
 16777215
176
     1
 90
        2
176
     1
 90
        2
176
     1
 62
     7
176
     1
 62
   257
176
     1
 90
        1
176
     1
 90
        1
176
     1
 40
40.0
176
     1
 90
        8
176
     1
 62
     7
176
     1
 40
1.0
176
     1
 90
        1
176
     1
 90
        6
176
     1
 90
        2
176
     1
 62
     7
176
     1
 90
        3
176
     1
 90
        0
176
     1
 90
        0
176
     1
290
     0
176
     1
 90
        1
176
     1
 40
0.0
176
     1
 90
        0
176
     1
290
     0
176
     1
290
     1
176
     1
290
     1
176
     1
290
     0
176
     1
290
     0
176
     1
290
     0
176
     1
290
     0
176
     1
290
     0
176
     1
290
     0
176
     1
 90
       50
176
     1
 40
0.0
176
     1
 40
1.0
176
     1
 90
        0
176
     1
 62
    18
176
     1
 90
       50
176
     1
 90
        3
176
     1
 62
     5
420
      255
176
     1
290
     0
176
     1
 90
       50
176
     1
 90
       50
176
     1
 90
       50
176
     1
290
     0
176
     1
 90
       50
176
     1
 62
   256
176
     0
 40
1.0
176
     0
 90
        2
176
     1
  1
strokes_ogs.tif
176
     1
290
     0
176
     1
 40
1.0
176
     1
 40
1.0
176
     1
  0
VISUALSTYLE
  5
FA
102
{ACAD_REACTORS
330
EF
102
}
330
EF
100
AcDbVisualStyle
  2
Dim
 70
    11
177
     3
291
     1
 70
    58
 90
        2
176
     1
 90
        2
176
     1
 90
        1
176
     1
 90
        0
176
     1
 40
0.6
176
     1
 40
30.0
176
     1
 62
     7
420
 16777215
176
     1
 90
        1
176
     1
 90
        4
176
     1
 62
     7
176
     1
 62
   257
176
     1
 90
        1
176
     1
 90
        1
176
     1
 40
1.0
176
     1
 90
        8
176
     1
 62
     7
176
     1
 40
1.0
176
     1
 90
        1
176
     1
 90
        6
176
     1
 90
        2
176
     1
 62
     7
176
     1
 90
        5
176
     1
 90
        0
176
     1
 90
        0
176
     1
290
     0
176
     1
 90
        1
176
     1
 40
-50.0
176
     1
 90
        0
176
     1
290
     0
176
     1
290
     1
176
     1
290
     1
176
     1
290
     0
176
     1
290
     0
176
     1
290
     0
176
     1
290
     0
176
     1
290
     0
176
     1
290
     0
176
     1
 90
       50
176
     1
 40
0.0
176
     1
 40
1.0
176
     1
 90
        0
176
     1
 62
    18
176
     1
 90
       50
176
     1
 90
        3
176
     1
 62
     5
420
      255
176
     1
290
     0
176
     1
 90
       50
176
     1
 90
       50
176
     1
 90
       50
176
     1
290
     0
176
     1
 90
       50
176
     1
 62
   256
176
     0
 40
1.0
176
     0
 90
        2
176
     1
  1
strokes_ogs.tif
176
     1
290
     0
176
     1
 40
1.0
176
     1
 40
1.0
176
     1
  0
VISUALSTYLE
  5
262
102
{ACAD_REACTORS
330
EF
102
}
330
EF
100
AcDbVisualStyle
  2
EdgeColorOff
 70
    22
177
     3
291
     1
 70
    58
 90
        2
176
     0
 90
        2
176
     0
 90
        0
176
     0
 90
        0
176
     0
 40
0.6
176
     0
 40
30.0
176
     0
 62
     7
420
 16777215
176
     0
 90
        1
176
     0
 90
        4
176
     0
 62
     7
176
     0
 62
   257
176
     0
 90
        1
176
     0
 90
        1
176
     0
 40
1.0
176
     0
 90
        8
176
     2
 62
     7
176
     0
 40
1.0
176
     0
 90
        1
176
     0
 90
        6
176
     0
 90
        2
176
     0
 62
     7
176
     0
 90
        5
176
     0
 90
        0
176
     0
 90
        0
176
     0
290
     0
176
     0
 90
        1
176
     0
 40
0.0
176
     0
 90
        0
176
     0
290
     0
176
     0
290
     1
176
     0
290
     1
176
     0
290
     0
176
     0
290
     0
176
     0
290
     0
176
     0
290
     0
176
     0
290
     0
176
     0
290
     0
176
     0
 90
       50
176
     0
 40
0.0
176
     0
 40
1.0
176
     0
 90
        0
176
     0
 62
    18
176
     0
 90
       50
176
     0
 90
        3
176
     0
 62
     5
420
      255
176
     0
290
     0
176
     0
 90
       50
176
     0
 90
       50
176
     0
 90
       50
176
     0
290
     0
176
     0
 90
       50
176
     0
 62
   256
176
     0
 40
1.0
176
     0
 90
        2
176
     0
  1
strokes_ogs.tif
176
     0
290
     0
176
     0
 40
1.0
176
     0
 40
1.0
176
     0
  0
VISUALSTYLE
  5
FE
102
{ACAD_REACTORS
330
EF
102
}
330
EF
100
AcDbVisualStyle
  2
Facepattern
 70
    15
177
     3
291
     1
 70
    58
 90
        2
176
     1
 90
        2
176
     1
 90
        1
176
     1
 90
        0
176
     1
 40
0.6
176
     1
 40
30.0
176
     1
 62
     7
420
 16777215
176
     1
 90
        1
176
     1
 90
        4
176
     1
 62
     7
176
     1
 62
   257
176
     1
 90
        1
176
     1
 90
        1
176
     1
 40
1.0
176
     1
 90
        8
176
     1
 62
     7
176
     1
 40
1.0
176
     1
 90
        1
176
     1
 90
        6
176
     1
 90
        2
176
     1
 62
     7
176
     1
 90
        5
176
     1
 90
        0
176
     1
 90
        0
176
     1
290
     0
176
     1
 90
        1
176
     1
 40
0.0
176
     1
 90
        0
176
     1
290
     0
176
     1
290
     1
176
     1
290
     1
176
     1
290
     0
176
     1
290
     0
176
     1
290
     0
176
     1
290
     0
176
     1
290
     0
176
     1
290
     0
176
     1
 90
       50
176
     1
 40
0.0
176
     1
 40
1.0
176
     1
 90
        0
176
     1
 62
    18
176
     1
 90
       50
176
     1
 90
        3
176
     1
 62
     5
420
      255
176
     1
290
     0
176
     1
 90
       50
176
     1
 90
       50
176
     1
 90
       50
176
     1
290
     0
176
     1
 90
       50
176
     1
 62
   256
176
     0
 40
1.0
176
     0
 90
        2
176
     1
  1
strokes_ogs.tif
176
     1
290
     0
176
     1
 40
1.0
176
     1
 40
1.0
176
     1
  0
VISUALSTYLE
  5
F0
102
{ACAD_REACTORS
330
EF
102
}
330
EF
100
AcDbVisualStyle
  2
Flat
 70
     0
177
     3
291
     1
 70
    58
 90
        2
176
     1
 90
        1
176
     1
 90
        1
176
     1
 90
        2
176
     1
 40
0.6
176
     1
 40
30.0
176
     1
 62
     7
420
 16777215
176
     1
 90
        0
176
     1
 90
        4
176
     1
 62
     7
176
     1
 62
   257
176
     1
 90
        1
176
     1
 90
        1
176
     1
 40
1.0
176
     1
 90
        8
176
     1
 62
     7
176
     1
 40
1.0
176
     1
 90
        1
176
     1
 90
        6
176
     1
 90
        2
176
     1
 62
     7
176
     1
 90
        5
176
     1
 90
        0
176
     1
 90
        0
176
     1
290
     0
176
     1
 90
        1
176
     1
 40
0.0
176
     1
 90
        0
176
     1
290
     0
176
     1
290
     1
176
     1
290
     1
176
     1
290
     0
176
     1
290
     0
176
     1
290
     0
176
     1
290
     0
176
     1
290
     0
176
     1
290
     0
176
     1
 90
       50
176
     1
 40
0.0
176
     1
 40
1.0
176
     1
 90
        0
176
     1
 62
    18
176
     1
 90
       50
176
     1
 90
        3
176
     1
 62
     5
420
      255
176
     1
290
     0
176
     1
 90
       50
176
     1
 90
       50
176
     1
 90
       50
176
     1
290
     0
176
     1
 90
       50
176
     1
 62
   256
176
     0
 40
1.0
176
     0
 90
        2
176
     1
  1
strokes_ogs.tif
176
     1
290
     0
176
     1
 40
1.0
176
     1
 40
1.0
176
     1
  0
VISUALSTYLE
  5
F1
102
{ACAD_REACTORS
330
EF
102
}
330
EF
100
AcDbVisualStyle
  2
FlatWithEdges
 70
     1
177
     3
291
     1
 70
    58
 90
        2
176
     1
 90
        1
176
     1
 90
        1
176
     1
 90
        2
176
     1
 40
0.6
176
     1
 40
30.0
176
     1
 62
     7
420
 16777215
176
     1
 90
        1
176
     1
 90
        4
176
     1
 62
     7
176
     1
 62
   257
176
     1
 90
        1
176
     1
 90
        1
176
     1
 40
1.0
176
     1
 90
        0
176
     1
 62
   257
176
     1
 40
1.0
176
     1
 90
        1
176
     1
 90
        6
176
     1
 90
        2
176
     1
 62
     7
176
     1
 90
        5
176
     1
 90
        0
176
     1
 90
        0
176
     1
290
     0
176
     1
 90
        1
176
     1
 40
0.0
176
     1
 90
        0
176
     1
290
     0
176
     1
290
     1
176
     1
290
     1
176
     1
290
     0
176
     1
290
     0
176
     1
290
     0
176
     1
290
     0
176
     1
290
     0
176
     1
290
     0
176
     1
 90
       50
176
     1
 40
0.0
176
     1
 40
1.0
176
     1
 90
        0
176
     1
 62
    18
176
     1
 90
       50
176
     1
 90
        3
176
     1
 62
     5
420
      255
176
     1
290
     0
176
     1
 90
       50
176
     1
 90
       50
176
     1
 90
       50
176
     1
290
     0
176
     1
 90
       50
176
     1
 62
   256
176
     0
 40
1.0
176
     0
 90
        2
176
     1
  1
strokes_ogs.tif
176
     1
290
     0
176
     1
 40
1.0
176
     1
 40
1.0
176
     1
  0
VISUALSTYLE
  5
F2
102
{ACAD_REACTORS
330
EF
102
}
330
EF
100
AcDbVisualStyle
  2
Gouraud
 70
     2
177
     3
291
     1
 70
    58
 90
        2
176
     1
 90
        2
176
     1
 90
        1
176
     1
 90
        2
176
     1
 40
0.6
176
     1
 40
30.0
176
     1
 62
     7
420
 16777215
176
     1
 90
        0
176
     1
 90
        4
176
     1
 62
     7
176
     1
 62
   257
176
     1
 90
        1
176
     1
 90
        1
176
     1
 40
1.0
176
     1
 90
        0
176
     1
 62
     7
176
     1
 40
1.0
176
     1
 90
        1
176
     1
 90
        6
176
     1
 90
        2
176
     1
 62
     7
176
     1
 90
        5
176
     1
 90
        0
176
     1
 90
        0
176
     1
290
     0
176
     1
 90
        1
176
     1
 40
0.0
176
     1
 90
        0
176
     1
290
     0
176
     1
290
     1
176
     1
290
     1
176
     1
290
     0
176
     1
290
     0
176
     1
290
     0
176
     1
290
     0
176
     1
290
     0
176
     1
290
     0
176
     1
 90
       50
176
     1
 40
0.0
176
     1
 40
1.0
176
     1
 90
        0
176
     1
 62
    18
176
     1
 90
       50
176
     1
 90
        3
176
     1
 62
     5
420
      255
176
     1
290
     0
176
     1
 90
       50
176
     1
 90
       50
176
     1
 90
       50
176
     1
290
     0
176
     1
 90
       50
176
     1
 62
   256
176
     0
 40
1.0
176
     0
 90
        2
176
     1
  1
strokes_ogs.tif
176
     1
290
     0
176
     1
 40
1.0
176
     1
 40
1.0
176
     1
  0
VISUALSTYLE
  5
F3
102
{ACAD_REACTORS
330
EF
102
}
330
EF
100
AcDbVisualStyle
  2
GouraudWithEdges
 70
     3
177
     3
291
     1
 70
    58
 90
        2
176
     1
 90
        2
176
     1
 90
        1
176
     1
 90
        2
176
     1
 40
0.6
176
     1
 40
30.0
176
     1
 62
     7
420
 16777215
176
     1
 90
        1
176
     1
 90
        4
176
     1
 62
     7
176
     1
 62
   257
176
     1
 90
        1
176
     1
 90
        1
176
     1
 40
1.0
176
     1
 90
        0
176
     1
 62
   257
176
     1
 40
1.0
176
     1
 90
        1
176
     1
 90
        6
176
     1
 90
        2
176
     1
 62
     7
176
     1
 90
        5
176
     1
 90
        0
176
     1
 90
        0
176
     1
290
     0
176
     1
 90
        1
176
     1
 40
0.0
176
     1
 90
        0
176
     1
290
     0
176
     1
290
     1
176
     1
290
     1
176
     1
290
     0
176
     1
290
     0
176
     1
290
     0
176
     1
290
     0
176
     1
290
     0
176
     1
290
     0
176
     1
 90
       50
176
     1
 40
0.0
176
     1
 40
1.0
176
     1
 90
        0
176
     1
 62
    18
176
     1
 90
       50
176
     1
 90
        3
176
     1
 62
     5
420
      255
176
     1
290
     0
176
     1
 90
       50
176
     1
 90
       50
176
     1
 90
       50
176
     1
290
     0
176
     1
 90
       50
176
     1
 62
   256
176
     0
 40
1.0
176
     0
 90
        2
176
     1
  1
strokes_ogs.tif
176
     1
290
     0
176
     1
 40
1.0
176
     1
 40
1.0
176
     1
  0
VISUALSTYLE
  5
25F
102
{ACAD_REACTORS
330
EF
102
}
330
EF
100
AcDbVisualStyle
  2
Hidden
 70
     6
177
     3
291
     0
 70
    58
 90
        1
176
     1
 90
        2
176
     1
 90
        2
176
     1
 90
        0
176
     1
 40
0.6
176
     1
 40
30.0
176
     1
 62
     7
420
 16777215
176
     1
 90
        2
176
     1
 90
        2
176
     1
 62
     7
176
     1
 62
   257
176
     1
 90
        2
176
     1
 90
        1
176
     1
 40
40.0
176
     1
 90
        0
176
     1
 62
   257
176
     1
 40
1.0
176
     1
 90
        1
176
     1
 90
        6
176
     1
 90
        2
176
     1
 62
     7
176
     1
 90
        3
176
     1
 90
        0
176
     1
 90
        0
176
     1
290
     0
176
     1
 90
        1
176
     1
 40
0.0
176
     1
 90
        0
176
     1
290
     0
176
     1
290
     1
176
     1
290
     1
176
     1
290
     0
176
     1
290
     0
176
     1
290
     0
176
     1
290
     0
176
     1
290
     0
176
     1
290
     0
176
     1
 90
       50
176
     1
 40
0.0
176
     1
 40
1.0
176
     1
 90
        0
176
     1
 62
    18
176
     1
 90
       50
176
     1
 90
        3
176
     1
 62
     5
420
      255
176
     1
290
     0
176
     1
 90
       50
176
     1
 90
       50
176
     1
 90
       50
176
     1
290
     0
176
     1
 90
       50
176
     1
 62
   256
176
     0
 40
1.0
176
     0
 90
        2
176
     1
  1
strokes_ogs.tif
176
     1
290
     0
176
     1
 40
1.0
176
     1
 40
1.0
176
     1
  0
VISUALSTYLE
  5
260
102
{ACAD_REACTORS
330
EF
102
}
330
EF
100
AcDbVisualStyle
  2
JitterOff
 70
    20
177
     3
291
     1
 70
    58
 90
        2
176
     0
 90
        2
176
     0
 90
        0
176
     0
 90
        0
176
     0
 40
0.6
176
     0
 40
30.0
176
     0
 62
     7
420
 16777215
176
     0
 90
        1
176
     0
 90
        4
176
     0
 62
     7
176
     0
 62
   257
176
     0
 90
        1
176
     0
 90
        1
176
     0
 40
1.0
176
     0
 90
       10
176
     2
 62
     7
176
     0
 40
1.0
176
     0
 90
        1
176
     0
 90
        6
176
     0
 90
        2
176
     0
 62
     7
176
     0
 90
        5
176
     0
 90
        0
176
     0
 90
        0
176
     0
290
     0
176
     0
 90
        1
176
     0
 40
0.0
176
     0
 90
        0
176
     0
290
     0
176
     0
290
     1
176
     0
290
     1
176
     0
290
     0
176
     0
290
     0
176
     0
290
     0
176
     0
290
     0
176
     0
290
     0
176
     0
290
     0
176
     0
 90
       50
176
     0
 40
0.0
176
     0
 40
1.0
176
     0
 90
        0
176
     0
 62
    18
176
     0
 90
       50
176
     0
 90
        3
176
     0
 62
     5
420
      255
176
     0
290
     0
176
     0
 90
       50
176
     0
 90
       50
176
     0
 90
       50
176
     0
290
     0
176
     0
 90
       50
176
     0
 62
   256
176
     0
 40
1.0
176
     0
 90
        2
176
     0
  1
strokes_ogs.tif
176
     0
290
     0
176
     0
 40
1.0
176
     0
 40
1.0
176
     0
  0
VISUALSTYLE
  5
FD
102
{ACAD_REACTORS
330
EF
102
}
330
EF
100
AcDbVisualStyle
  2
Linepattern
 70
    14
177
     3
291
     1
 70
    58
 90
        2
176
     1
 90
        2
176
     1
 90
        1
176
     1
 90
        0
176
     1
 40
0.6
176
     1
 40
30.0
176
     1
 62
     7
420
 16777215
176
     1
 90
        1
176
     1
 90
        4
176
     1
 62
     7
176
     1
 62
   257
176
     1
 90
        7
176
     1
 90
        7
176
     1
 40
1.0
176
     1
 90
        8
176
     1
 62
     7
176
     1
 40
1.0
176
     1
 90
        1
176
     1
 90
        6
176
     1
 90
        2
176
     1
 62
     7
176
     1
 90
        5
176
     1
 90
        0
176
     1
 90
        0
176
     1
290
     0
176
     1
 90
        1
176
     1
 40
0.0
176
     1
 90
        0
176
     1
290
     0
176
     1
290
     1
176
     1
290
     1
176
     1
290
     0
176
     1
290
     0
176
     1
290
     0
176
     1
290
     0
176
     1
290
     0
176
     1
290
     0
176
     1
 90
       50
176
     1
 40
0.0
176
     1
 40
1.0
176
     1
 90
        0
176
     1
 62
    18
176
     1
 90
       50
176
     1
 90
        3
176
     1
 62
     5
420
      255
176
     1
290
     0
176
     1
 90
       50
176
     1
 90
       50
176
     1
 90
       50
176
     1
290
     0
176
     1
 90
       50
176
     1
 62
   256
176
     0
 40
1.0
176
     0
 90
        2
176
     1
  1
strokes_ogs.tif
176
     1
290
     0
176
     1
 40
1.0
176
     1
 40
1.0
176
     1
  0
VISUALSTYLE
  5
261
102
{ACAD_REACTORS
330
EF
102
}
330
EF
100
AcDbVisualStyle
  2
OverhangOff
 70
    21
177
     3
291
     1
 70
    58
 90
        2
176
     0
 90
        2
176
     0
 90
        0
176
     0
 90
        0
176
     0
 40
0.6
176
     0
 40
30.0
176
     0
 62
     7
420
 16777215
176
     0
 90
        1
176
     0
 90
        4
176
     0
 62
     7
176
     0
 62
   257
176
     0
 90
        1
176
     0
 90
        1
176
     0
 40
1.0
176
     0
 90
        9
176
     2
 62
     7
176
     0
 40
1.0
176
     0
 90
        1
176
     0
 90
        6
176
     0
 90
        2
176
     0
 62
     7
176
     0
 90
        5
176
     0
 90
        0
176
     0
 90
        0
176
     0
290
     0
176
     0
 90
        1
176
     0
 40
0.0
176
     0
 90
        0
176
     0
290
     0
176
     0
290
     1
176
     0
290
     1
176
     0
290
     0
176
     0
290
     0
176
     0
290
     0
176
     0
290
     0
176
     0
290
     0
176
     0
290
     0
176
     0
 90
       50
176
     0
 40
0.0
176
     0
 40
1.0
176
     0
 90
        0
176
     0
 62
    18
176
     0
 90
       50
176
     0
 90
        3
176
     0
 62
     5
420
      255
176
     0
290
     0
176
     0
 90
       50
176
     0
 90
       50
176
     0
 90
       50
176
     0
290
     0
176
     0
 90
       50
176
     0
 62
   256
176
     0
 40
1.0
176
     0
 90
        2
176
     0
  1
strokes_ogs.tif
176
     0
290
     0
176
     0
 40
1.0
176
     0
 40
1.0
176
     0
  0
VISUALSTYLE
  5
F9
102
{ACAD_REACTORS
330
EF
102
}
330
EF
100
AcDbVisualStyle
  2
Realistic
 70
     8
177
     3
291
     0
 70
    58
 90
        2
176
     1
 90
        2
176
     1
 90
        1
176
     1
 90
        0
176
     1
 40
0.6
176
     1
 40
30.0
176
     1
 62
     7
420
 16777215
176
     1
 90
        1
176
     1
 90
        0
176
     1
 62
     7
176
     1
 62
   257
176
     1
 90
        1
176
     1
 90
        1
176
     1
 40
1.0
176
     1
 90
        8
176
     1
 62
     8
420
  7895160
176
     1
 40
1.0
176
     1
 90
        1
176
     1
 90
        6
176
     1
 90
        2
176
     1
 62
     7
176
     1
 90
        5
176
     1
 90
        0
176
     1
 90
        0
176
     1
290
     0
176
     1
 90
       13
176
     1
 40
0.0
176
     1
 90
        0
176
     1
290
     0
176
     1
290
     1
176
     1
290
     1
176
     1
290
     0
176
     1
290
     0
176
     1
290
     0
176
     1
290
     0
176
     1
290
     0
176
     1
290
     0
176
     1
 90
       50
176
     1
 40
0.0
176
     1
 40
1.0
176
     1
 90
        0
176
     1
 62
    18
176
     1
 90
       50
176
     1
 90
        3
176
     1
 62
     5
420
      255
176
     1
290
     0
176
     1
 90
       50
176
     1
 90
       50
176
     1
 90
       50
176
     1
290
     0
176
     1
 90
       50
176
     1
 62
   256
176
     0
 40
1.0
176
     0
 90
        2
176
     1
  1
strokes_ogs.tif
176
     1
290
     0
176
     1
 40
1.0
176
     1
 40
1.0
176
     1
  0
VISUALSTYLE
  5
267
102
{ACAD_REACTORS
330
EF
102
}
330
EF
100
AcDbVisualStyle
  2
Shaded
 70
    27
177
     3
291
     0
 70
    58
 90
        2
176
     1
 90
        2
176
     1
 90
        1
176
     1
 90
        2
176
     1
 40
0.6
176
     1
 40
30.0
176
     1
 62
     7
420
 16777215
176
     1
 90
        0
176
     1
 90
        4
176
     1
 62
     7
176
     1
 62
   257
176
     1
 90
        1
176
     1
 90
        1
176
     1
 40
1.0
176
     1
 90
        8
176
     1
 62
   257
176
     1
 40
1.0
176
     1
 90
        1
176
     1
 90
        6
176
     1
 90
        2
176
     1
 62
     8
420
  7895160
176
     1
 90
        3
176
     1
 90
        0
176
     1
 90
        0
176
     1
290
     0
176
     1
 90
        5
176
     1
 40
0.0
176
     1
 90
        0
176
     1
290
     0
176
     1
290
     1
176
     1
290
     1
176
     1
290
     0
176
     1
290
     0
176
     1
290
     0
176
     1
290
     0
176
     1
290
     0
176
     1
290
     0
176
     1
 90
       50
176
     1
 40
0.0
176
     1
 40
1.0
176
     1
 90
        0
176
     1
 62
    18
176
     1
 90
       50
176
     1
 90
        3
176
     1
 62
     5
420
      255
176
     1
290
     0
176
     1
 90
       50
176
     1
 90
       50
176
     1
 90
       50
176
     1
290
     0
176
     1
 90
       50
176
     1
 62
   256
176
     0
 40
1.0
176
     0
 90
        2
176
     1
  1
strokes_ogs.tif
176
     1
290
     0
176
     1
 40
1.0
176
     1
 40
1.0
176
     1
  0
VISUALSTYLE
  5
266
102
{ACAD_REACTORS
330
EF
102
}
330
EF
100
AcDbVisualStyle
  2
Shaded with edges
 70
    26
177
     3
291
     0
 70
    58
 90
        2
176
     1
 90
        2
176
     1
 90
        1
176
     1
 90
        2
176
     1
 40
0.6
176
     1
 40
30.0
176
     1
 62
     7
420
 16777215
176
     1
 90
        1
176
     1
 90
       10
176
     1
 62
     7
176
     1
 62
   257
176
     1
 90
        2
176
     1
 90
        1
176
     1
 40
1.0
176
     1
 90
        8
176
     1
 62
   257
176
     1
 40
1.0
176
     1
 90
        1
176
     1
 90
        6
176
     1
 90
        2
176
     1
 62
     7
176
     1
 90
        3
176
     1
 90
        0
176
     1
 90
        0
176
     1
290
     0
176
     1
 90
        5
176
     1
 40
0.0
176
     1
 90
        0
176
     1
290
     0
176
     1
290
     1
176
     1
290
     1
176
     1
290
     0
176
     1
290
     0
176
     1
290
     0
176
     1
290
     0
176
     1
290
     0
176
     1
290
     0
176
     1
 90
       50
176
     1
 40
0.0
176
     1
 40
1.0
176
     1
 90
        0
176
     1
 62
    18
176
     1
 90
       50
176
     1
 90
        3
176
     1
 62
     5
420
      255
176
     1
290
     0
176
     1
 90
       50
176
     1
 90
       50
176
     1
 90
       50
176
     1
290
     0
176
     1
 90
       50
176
     1
 62
   256
176
     0
 40
1.0
176
     0
 90
        2
176
     1
  1
strokes_ogs.tif
176
     1
290
     0
176
     1
 40
1.0
176
     1
 40
1.0
176
     1
  0
VISUALSTYLE
  5
263
102
{ACAD_REACTORS
330
EF
102
}
330
EF
100
AcDbVisualStyle
  2
Shades of Gray
 70
    23
177
     3
291
     0
 70
    58
 90
        2
176
     1
 90
        2
176
     1
 90
        3
176
     1
 90
        0
176
     1
 40
0.6
176
     1
 40
30.0
176
     1
 62
     7
420
 16777215
176
     1
 90
        2
176
     1
 90
        2
176
     1
 62
     7
176
     1
 62
     7
176
     1
 90
        1
176
     1
 90
        1
176
     1
 40
40.0
176
     1
 90
        8
176
     1
 62
     7
176
     1
 40
1.0
176
     1
 90
        1
176
     1
 90
        6
176
     1
 90
        2
176
     1
 62
     7
176
     1
 90
        3
176
     1
 90
        0
176
     1
 90
        0
176
     1
290
     0
176
     1
 90
        1
176
     1
 40
0.0
176
     1
 90
        0
176
     1
290
     0
176
     1
290
     1
176
     1
290
     1
176
     1
290
     0
176
     1
290
     0
176
     1
290
     0
176
     1
290
     0
176
     1
290
     0
176
     1
290
     0
176
     1
 90
       50
176
     1
 40
0.0
176
     1
 40
1.0
176
     1
 90
        0
176
     1
 62
    18
176
     1
 90
       50
176
     1
 90
        3
176
     1
 62
     5
420
      255
176
     1
290
     0
176
     1
 90
       50
176
     1
 90
       50
176
     1
 90
       50
176
     1
290
     0
176
     1
 90
       50
176
     1
 62
   256
176
     0
 40
1.0
176
     0
 90
        2
176
     1
  1
strokes_ogs.tif
176
     1
290
     0
176
     1
 40
1.0
176
     1
 40
1.0
176
     1
  0
VISUALSTYLE
  5
264
102
{ACAD_REACTORS
330
EF
102
}
330
EF
100
AcDbVisualStyle
  2
Sketchy
 70
    24
177
     3
291
     0
 70
    58
 90
        1
176
     1
 90
        2
176
     1
 90
        2
176
     1
 90
        0
176
     1
 40
0.6
176
     1
 40
30.0
176
     1
 62
     7
420
 16777215
176
     1
 90
        2
176
     1
 90
        2
176
     1
 62
     7
176
     1
 62
     7
176
     1
 90
        1
176
     1
 90
        1
176
     1
 40
40.0
176
     1
 90
       11
176
     1
 62
     7
176
     1
 40
1.0
176
     1
 90
        1
176
     1
 90
        6
176
     1
 90
        2
176
     1
 62
     7
176
     1
 90
        6
176
     1
 90
        0
176
     1
 90
        0
176
     1
290
     0
176
     1
 90
        1
176
     1
 40
0.0
176
     1
 90
        0
176
     1
290
     0
176
     1
290
     1
176
     1
290
     1
176
     1
290
     0
176
     1
290
     0
176
     1
290
     0
176
     1
290
     0
176
     1
290
     0
176
     1
290
     0
176
     1
 90
       50
176
     1
 40
0.0
176
     1
 40
1.0
176
     1
 90
        0
176
     1
 62
    18
176
     1
 90
       50
176
     1
 90
        3
176
     1
 62
     5
420
      255
176
     1
290
     0
176
     1
 90
       50
176
     1
 90
       50
176
     1
 90
       50
176
     1
290
     0
176
     1
 90
       50
176
     1
 62
   256
176
     0
 40
1.0
176
     0
 90
        2
176
     1
  1
strokes_ogs.tif
176
     1
290
     0
176
     1
 40
1.0
176
     1
 40
1.0
176
     1
  0
VISUALSTYLE
  5
FC
102
{ACAD_REACTORS
330
EF
102
}
330
EF
100
AcDbVisualStyle
  2
Thicken
 70
    13
177
     3
291
     1
 70
    58
 90
        2
176
     1
 90
        2
176
     1
 90
        1
176
     1
 90
        0
176
     1
 40
0.6
176
     1
 40
30.0
176
     1
 62
     7
420
 16777215
176
     1
 90
        1
176
     1
 90
        4
176
     1
 62
     7
176
     1
 62
   257
176
     1
 90
        1
176
     1
 90
        1
176
     1
 40
1.0
176
     1
 90
       12
176
     1
 62
     7
176
     1
 40
1.0
176
     1
 90
        1
176
     1
 90
        6
176
     1
 90
        2
176
     1
 62
     7
176
     1
 90
        5
176
     1
 90
        0
176
     1
 90
        0
176
     1
290
     0
176
     1
 90
        1
176
     1
 40
0.0
176
     1
 90
        0
176
     1
290
     0
176
     1
290
     1
176
     1
290
     1
176
     1
290
     0
176
     1
290
     0
176
     1
290
     0
176
     1
290
     0
176
     1
290
     0
176
     1
290
     0
176
     1
 90
       50
176
     1
 40
0.0
176
     1
 40
1.0
176
     1
 90
        0
176
     1
 62
    18
176
     1
 90
       50
176
     1
 90
        3
176
     1
 62
     5
420
      255
176
     1
290
     0
176
     1
 90
       50
176
     1
 90
       50
176
     1
 90
       50
176
     1
290
     0
176
     1
 90
       50
176
     1
 62
   256
176
     0
 40
1.0
176
     0
 90
        2
176
     1
  1
strokes_ogs.tif
176
     1
290
     0
176
     1
 40
1.0
176
     1
 40
1.0
176
     1
  0
VISUALSTYLE
  5
25E
102
{ACAD_REACTORS
330
EF
102
}
330
EF
100
AcDbVisualStyle
  2
Wireframe
 70
     5
177
     3
291
     0
 70
    58
 90
        0
176
     1
 90
        2
176
     1
 90
        0
176
     1
 90
        0
176
     1
 40
0.6
176
     1
 40
30.0
176
     1
 62
     7
420
 16777215
176
     1
 90
        1
176
     1
 90
        4
176
     1
 62
     7
176
     1
 62
   257
176
     1
 90
        1
176
     1
 90
        1
176
     1
 40
1.0
176
     1
 90
        0
176
     1
 62
   257
176
     1
 40
1.0
176
     1
 90
        1
176
     1
 90
        6
176
     1
 90
        2
176
     1
 62
     7
176
     1
 90
        3
176
     1
 90
        0
176
     1
 90
        0
176
     1
290
     0
176
     1
 90
        1
176
     1
 40
0.0
176
     1
 90
        0
176
     1
290
     0
176
     1
290
     1
176
     1
290
     1
176
     1
290
     0
176
     1
290
     0
176
     1
290
     0
176
     1
290
     0
176
     1
290
     0
176
     1
290
     0
176
     1
 90
       50
176
     1
 40
0.0
176
     1
 40
1.0
176
     1
 90
        0
176
     1
 62
    18
176
     1
 90
       50
176
     1
 90
        3
176
     1
 62
     5
420
      255
176
     1
290
     0
176
     1
 90
       50
176
     1
 90
       50
176
     1
 90
       50
176
     1
290
     0
176
     1
 90
       50
176
     1
 62
   256
176
     0
 40
1.0
176
     0
 90
        2
176
     1
  1
strokes_ogs.tif
176
     1
290
     0
176
     1
 40
1.0
176
     1
 40
1.0
176
     1
  0
VISUALSTYLE
  5
265
102
{ACAD_REACTORS
330
EF
102
}
330
EF
100
AcDbVisualStyle
  2
X-Ray
 70
    25
177
     3
291
     0
 70
    58
 90
        2
176
     1
 90
        2
176
     1
 90
        1
176
     1
 90
        1
176
     1
 40
0.5
176
     1
 40
30.0
176
     1
 62
     7
420
 16777215
176
     1
 90
        1
176
     1
 90
        0
176
     1
 62
     7
176
     1
 62
   257
176
     1
 90
        1
176
     1
 90
        1
176
     1
 40
1.0
176
     1
 90
        8
176
     1
 62
     7
176
     1
 40
1.0
176
     1
 90
        1
176
     1
 90
        6
176
     1
 90
        2
176
     1
 62
     7
176
     1
 90
        3
176
     1
 90
        0
176
     1
 90
        0
176
     1
290
     0
176
     1
 90
       13
176
     1
 40
0.0
176
     1
 90
        0
176
     1
290
     0
176
     1
290
     1
176
     1
290
     1
176
     1
290
     0
176
     1
290
     0
176
     1
290
     0
176
     1
290
     0
176
     1
290
     0
176
     1
290
     0
176
     1
 90
       50
176
     1
 40
0.0
176
     1
 40
1.0
176
     1
 90
        0
176
     1
 62
    18
176
     1
 90
       50
176
     1
 90
        3
176
     1
 62
     5
420
      255
176
     1
290
     0
176
     1
 90
       50
176
     1
 90
       50
176
     1
 90
       50
176
     1
290
     0
176
     1
 90
       50
176
     1
 62
   256
176
     0
 40
1.0
176
     0
 90
        2
176
     1
  1
strokes_ogs.tif
176
     1
290
     0
176
     1
 40
1.0
176
     1
 40
1.0
176
     1
  0
DICTIONARYVAR
  5
146
102
{ACAD_REACTORS
330
5E
102
}
330
5E
100
DictionaryVariables
280
     0
  1
1:1
  0
DICTIONARYVAR
  5
145
102
{ACAD_REACTORS
330
5E
102
}
330
5E
100
DictionaryVariables
280
     0
  1
STANDARD
  0
DICTIONARYVAR
  5
84
102
{ACAD_REACTORS
330
5E
102
}
330
5E
100
DictionaryVariables
280
     0
  1
STANDARD
  0
DICTIONARYVAR
  5
492
102
{ACAD_REACTORS
330
5E
102
}
330
5E
100
DictionaryVariables
280
     0
  1
Metric50
  0
DICTIONARYVAR
  5
493
102
{ACAD_REACTORS
330
5E
102
}
330
5E
100
DictionaryVariables
280
     0
  1
Metric50
  0
DICTIONARYVAR
  5
5F
102
{ACAD_REACTORS
330
5E
102
}
330
5E
100
DictionaryVariables
280
     0
  1
2
  0
DICTIONARYVAR
  5
63
102
{ACAD_REACTORS
330
5E
102
}
330
5E
100
DictionaryVariables
280
     0
  1
1
  0
DICTIONARY
  5
269
102
{ACAD_REACTORS
330
268
102
}
330
268
100
AcDbDictionary
281
     1
  3
BIGFONT
350
26A
  3
DESFILE
350
26C
  3
ORIFILE
350
26B
  0
DICTIONARY
  5
274
330
7F
100
AcDbDictionary
280
     1
281
     1
  3
ACAD_ROUNDTRIP_2008_TABLESTYLE_CELLSTYLEMAP
360
494
  0
DICTIONARYVAR
  5
26A
102
{ACAD_REACTORS
330
269
102
}
330
269
100
DictionaryVariables
280
     0
  1
1
  0
DICTIONARYVAR
  5
26C
102
{ACAD_REACTORS
330
269
102
}
330
269
100
DictionaryVariables
280
     0
  1
AllInOneBig.shx
  0
DICTIONARYVAR
  5
26B
102
{ACAD_REACTORS
330
269
102
}
330
269
100
DictionaryVariables
280
     0
  1

  0
CELLSTYLEMAP
  5
494
102
{ACAD_REACTORS
330
274
102
}
330
274
100
AcDbCellStyleMap
 90
        3
300
CELLSTYLE
  1
TABLEFORMAT_BEGIN
 90
        5
170
     1
 91
        0
 92
    32768
 62
   257
 93
        1
300
CONTENTFORMAT
  1
CONTENTFORMAT_BEGIN
 90
        0
 91
        0
 92
      512
 93
        0
300

 40
0.0
140
1.0
 94
        5
 62
     0
340
11
144
6.0
309
CONTENTFORMAT_END
171
     1
301
MARGIN
  1
CELLMARGIN_BEGIN
 40
1.5
 40
1.5
 40
1.5
 40
1.5
 40
0.18
 40
0.18
309
CELLMARGIN_END
 94
        6
 95
        1
302
GRIDFORMAT
  1
GRIDFORMAT_BEGIN
 90
        0
 91
        1
 62
     0
 92
       -2
340
14
 93
        0
 40
1.125
309
GRIDFORMAT_END
 95
        2
302
GRIDFORMAT
  1
GRIDFORMAT_BEGIN
 90
        0
 91
        1
 62
     0
 92
       -2
340
14
 93
        0
 40
1.125
309
GRIDFORMAT_END
 95
        4
302
GRIDFORMAT
  1
GRIDFORMAT_BEGIN
 90
        0
 91
        1
 62
     0
 92
       -2
340
14
 93
        0
 40
1.125
309
GRIDFORMAT_END
 95
        8
302
GRIDFORMAT
  1
GRIDFORMAT_BEGIN
 90
        0
 91
        1
 62
     0
 92
       -2
340
14
 93
        0
 40
1.125
309
GRIDFORMAT_END
 95
       16
302
GRIDFORMAT
  1
GRIDFORMAT_BEGIN
 90
        0
 91
        1
 62
     0
 92
       -2
340
14
 93
        0
 40
1.125
309
GRIDFORMAT_END
 95
       32
302
GRIDFORMAT
  1
GRIDFORMAT_BEGIN
 90
        0
 91
        1
 62
     0
 92
       -2
340
14
 93
        0
 40
1.125
309
GRIDFORMAT_END
309
TABLEFORMAT_END
  1
CELLSTYLE_BEGIN
 90
        1
 91
        1
300
_TITLE
309
CELLSTYLE_END
300
CELLSTYLE
  1
TABLEFORMAT_BEGIN
 90
        5
170
     1
 91
        0
 92
        0
 62
   257
 93
        1
300
CONTENTFORMAT
  1
CONTENTFORMAT_BEGIN
 90
        0
 91
        0
 92
      512
 93
        0
300

 40
0.0
140
1.0
 94
        5
 62
     0
340
11
144
4.5
309
CONTENTFORMAT_END
171
     1
301
MARGIN
  1
CELLMARGIN_BEGIN
 40
1.5
 40
1.5
 40
1.5
 40
1.5
 40
0.18
 40
0.18
309
CELLMARGIN_END
 94
        6
 95
        1
302
GRIDFORMAT
  1
GRIDFORMAT_BEGIN
 90
        0
 91
        1
 62
     0
 92
       -2
340
14
 93
        0
 40
1.125
309
GRIDFORMAT_END
 95
        2
302
GRIDFORMAT
  1
GRIDFORMAT_BEGIN
 90
        0
 91
        1
 62
     0
 92
       -2
340
14
 93
        0
 40
1.125
309
GRIDFORMAT_END
 95
        4
302
GRIDFORMAT
  1
GRIDFORMAT_BEGIN
 90
        0
 91
        1
 62
     0
 92
       -2
340
14
 93
        0
 40
1.125
309
GRIDFORMAT_END
 95
        8
302
GRIDFORMAT
  1
GRIDFORMAT_BEGIN
 90
        0
 91
        1
 62
     0
 92
       -2
340
14
 93
        0
 40
1.125
309
GRIDFORMAT_END
 95
       16
302
GRIDFORMAT
  1
GRIDFORMAT_BEGIN
 90
        0
 91
        1
 62
     0
 92
       -2
340
14
 93
        0
 40
1.125
309
GRIDFORMAT_END
 95
       32
302
GRIDFORMAT
  1
GRIDFORMAT_BEGIN
 90
        0
 91
        1
 62
     0
 92
       -2
340
14
 93
        0
 40
1.125
309
GRIDFORMAT_END
309
TABLEFORMAT_END
  1
CELLSTYLE_BEGIN
 90
        2
 91
        1
300
_HEADER
309
CELLSTYLE_END
300
CELLSTYLE
  1
TABLEFORMAT_BEGIN
 90
        5
170
     1
 91
        0
 92
        0
 62
   257
 93
        1
300
CONTENTFORMAT
  1
CONTENTFORMAT_BEGIN
 90
        0
 91
        0
 92
      512
 93
        0
300

 40
0.0
140
1.0
 94
        2
 62
     0
340
11
144
4.5
309
CONTENTFORMAT_END
171
     1
301
MARGIN
  1
CELLMARGIN_BEGIN
 40
1.5
 40
1.5
 40
1.5
 40
1.5
 40
0.18
 40
0.18
309
CELLMARGIN_END
 94
        6
 95
        1
302
GRIDFORMAT
  1
GRIDFORMAT_BEGIN
 90
        0
 91
        1
 62
     0
 92
       -2
340
14
 93
        0
 40
1.125
309
GRIDFORMAT_END
 95
        2
302
GRIDFORMAT
  1
GRIDFORMAT_BEGIN
 90
        0
 91
        1
 62
     0
 92
       -2
340
14
 93
        0
 40
1.125
309
GRIDFORMAT_END
 95
        4
302
GRIDFORMAT
  1
GRIDFORMAT_BEGIN
 90
        0
 91
        1
 62
     0
 92
       -2
340
14
 93
        0
 40
1.125
309
GRIDFORMAT_END
 95
        8
302
GRIDFORMAT
  1
GRIDFORMAT_BEGIN
 90
        0
 91
        1
 62
     0
 92
       -2
340
14
 93
        0
 40
1.125
309
GRIDFORMAT_END
 95
       16
302
GRIDFORMAT
  1
GRIDFORMAT_BEGIN
 90
        0
 91
        1
 62
     0
 92
       -2
340
14
 93
        0
 40
1.125
309
GRIDFORMAT_END
 95
       32
302
GRIDFORMAT
  1
GRIDFORMAT_BEGIN
 90
        0
 91
        1
 62
     0
 92
       -2
340
14
 93
        0
 40
1.125
309
GRIDFORMAT_END
309
TABLEFORMAT_END
  1
CELLSTYLE_BEGIN
 90
        3
 91
        2
300
_DATA
309
CELLSTYLE_END
  0
ENDSEC
  0
SECTION
  2
ACDSDATA
 70
     2
 71
     8
  0
ACDSSCHEMA
 90
        0
  1
AcDb_Thumbnail_Schema
  2
AcDbDs::ID
280
    10
 91
        8
  2
Thumbnail_Data
280
    15
 91
        0
101
ACDSRECORD
 95
        0
 90
        1
  2
AcDbDs::TreatedAsObjectData
280
     1
291
     1
101
ACDSRECORD
 95
        0
 90
        2
  2
AcDbDs::Legacy
280
     1
291
     1
101
ACDSRECORD
  1
AcDbDs::ID
 90
        3
  2
AcDs:Indexable
280
     1
291
     1
101
ACDSRECORD
  1
AcDbDs::ID
 90
        4
  2
AcDbDs::HandleAttribute
280
     7
282
     1
  0
ACDSSCHEMA
 90
        1
  1
AcDbDs::TreatedAsObjectDataSchema
  2
AcDbDs::TreatedAsObjectData
280
     1
 91
        0
  0
ACDSSCHEMA
 90
        2
  1
AcDbDs::LegacySchema
  2
AcDbDs::Legacy
280
     1
 91
        0
  0
ACDSSCHEMA
 90
        3
  1
AcDbDs::IndexedPropertySchema
  2
AcDs:Indexable
280
     1
 91
        0
  0
ACDSSCHEMA
 90
        4
  1
AcDbDs::HandleAttributeSchema
  2
AcDbDs::HandleAttribute
280
     7
 91
        1
284
     1
  0
ACDSRECORD
 90
        0
  2
AcDbDs::ID
280
    10
320
22
  2
Thumbnail_Data
280
    15
 94
     1102
310
89504E470D0A1A0A0000000D49484452000001000000009108030000001BE1960600000300504C5445212830FFFFFF2128300000000000000000000000000000000000000000000000000000330000660000990000CC0000FF0033000033330033660033990033CC0033FF0066000066330066660066990066CC0066FF0099
310
000099330099660099990099CC0099FF00CC0000CC3300CC6600CC9900CCCC00CCFF00FF0000FF3300FF6600FF9900FFCC00FFFF3300003300333300663300993300CC3300FF3333003333333333663333993333CC3333FF3366003366333366663366993366CC3366FF3399003399333399663399993399CC3399FF33CC00
310
33CC3333CC6633CC9933CCCC33CCFF33FF0033FF3333FF6633FF9933FFCC33FFFF6600006600336600666600996600CC6600FF6633006633336633666633996633CC6633FF6666006666336666666666996666CC6666FF6699006699336699666699996699CC6699FF66CC0066CC3366CC6666CC9966CCCC66CCFF66FF0066
310
FF3366FF6666FF9966FFCC66FFFF9900009900339900669900999900CC9900FF9933009933339933669933999933CC9933FF9966009966339966669966999966CC9966FF9999009999339999669999999999CC9999FF99CC0099CC3399CC6699CC9999CCCC99CCFF99FF0099FF3399FF6699FF9999FFCC99FFFFCC0000CC00
310
33CC0066CC0099CC00CCCC00FFCC3300CC3333CC3366CC3399CC33CCCC33FFCC6600CC6633CC6666CC6699CC66CCCC66FFCC9900CC9933CC9966CC9999CC99CCCC99FFCCCC00CCCC33CCCC66CCCC99CCCCCCCCCCFFCCFF00CCFF33CCFF66CCFF99CCFFCCCCFFFFFF0000FF0033FF0066FF0099FF00CCFF00FFFF3300FF3333
310
FF3366FF3399FF33CCFF33FFFF6600FF6633FF6666FF6699FF66CCFF66FFFF9900FF9933FF9966FF9999FF99CCFF99FFFFCC00FFCC33FFCC66FFCC99FFCCCCFFCCFFFFFF00FFFF33FFFF66FFFF99FFFFCCFFFFFF0000000D0D0D1A1A1A2828283535354343435050505D5D5D6B6B6B787878868686939393A1A1A1AEAEAEBB
310
BBBBC9C9C9D6D6D6E4E4E4F1F1F1FFFFFF0000000000000000000000000000000000000000000000000000000000002E4550F1000001094944415478DAEDDACD118230144651CAB1FF02A88436B277641475F891CCB8D0F79DB3C54DAE2101E33000000000F4BBDC850C775C7904585F994A06E89801634680EF7C56803F58
310
E5E6599E1D608CBF05C6F835A06B6B2BB40D3EB7F61E25D7FEF3E39A4ACD809700E7EF809A0142D70001041040000104480D30BF060A20800002082080001E8404104000010410E04DBB090ED0DA4E81AC83917580AA0723D3C900A58EC6A6E56F4FBB27A1ADF4E128C0B2E1BF3ABEBAFD7C1415207C7E0830C4CF805A0D8E
310
47533FC08791B5B402A7DF8AC36640C23237E4ADF01B53C08331A9B7800E5E87E35F7BCC00DF3784AF0116413F7AD90E000000000000000000000000000000F819577E284C1213E4D8DC0000000049454E44AE426082
  0
ACDSRECORD
 90
        0
  2
AcDbDs::ID
280
    10
320
D3
  2
Thumbnail_Data
280
    15
 94
     1406
310
89504E470D0A1A0A0000000D4948445200000100000000B5080300000087DCD12600000300504C5445FFFFFFFFFFFFFFFFFF0000000000000000000000000000000000000000000000000000330000660000990000CC0000FF0033000033330033660033990033CC0033FF0066000066330066660066990066CC0066FF0099
310
000099330099660099990099CC0099FF00CC0000CC3300CC6600CC9900CCCC00CCFF00FF0000FF3300FF6600FF9900FFCC00FFFF3300003300333300663300993300CC3300FF3333003333333333663333993333CC3333FF3366003366333366663366993366CC3366FF3399003399333399663399993399CC3399FF33CC00
310
33CC3333CC6633CC9933CCCC33CCFF33FF0033FF3333FF6633FF9933FFCC33FFFF6600006600336600666600996600CC6600FF6633006633336633666633996633CC6633FF6666006666336666666666996666CC6666FF6699006699336699666699996699CC6699FF66CC0066CC3366CC6666CC9966CCCC66CCFF66FF0066
310
FF3366FF6666FF9966FFCC66FFFF9900009900339900669900999900CC9900FF9933009933339933669933999933CC9933FF9966009966339966669966999966CC9966FF9999009999339999669999999999CC9999FF99CC0099CC3399CC6699CC9999CCCC99CCFF99FF0099FF3399FF6699FF9999FFCC99FFFFCC0000CC00
310
33CC0066CC0099CC00CCCC00FFCC3300CC3333CC3366CC3399CC33CCCC33FFCC6600CC6633CC6666CC6699CC66CCCC66FFCC9900CC9933CC9966CC9999CC99CCCC99FFCCCC00CCCC33CCCC66CCCC99CCCCCCCCCCFFCCFF00CCFF33CCFF66CCFF99CCFFCCCCFFFFFF0000FF0033FF0066FF0099FF00CCFF00FFFF3300FF3333
310
FF3366FF3399FF33CCFF33FFFF6600FF6633FF6666FF6699FF66CCFF66FFFF9900FF9933FF9966FF9999FF99CCFF99FFFFCC00FFCC33FFCC66FFCC99FFCCCCFFCCFFFFFF00FFFF33FFFF66FFFF99FFFFCCFFFFFF0000000D0D0D1A1A1A2828283535354343435050505D5D5D6B6B6B787878868686939393A1A1A1AEAEAEBB
310
BBBBC9C9C9D6D6D6E4E4E4F1F1F1FFFFFF000000000000000000000000000000000000000000000000000000000000AD4AB4E4000002394944415478DAEDDD416EC2301005501F87FB1F2027F1CA4BC4218A505BA528A2310910CFBC59B028129417FC3F318596CB39F55CCAA5A41E00000000B89B769DB897D99F010DC08A
310
25000040F216F03A400BC8000000B48016D00232000080BFDB2463CDCE2DD0863FD61B5B20084003907C0900108200842000210840080210820084200021084008021082008420002108400802108200842000210840086E0338FD4CD616180060BF169816E61760E9CA1A2C03A6DE5F68023038C06936E30214004F87E01C
310
600ABD04D6DCDE943E04FB5B2D580DBEFB781E0460F6AAA6DE8E685D9CC56B429C0BCC8E7BE743AA0759021BCF05FE007446C03819B0122065080200303A40F91C40881DA1F1011A80E44B400B6C01B8ED03646E812C0025324003907C090010820084E087CE05A2ED07140000D2B5401680F421B805E0C17758A5D8157EF4
310
355EE1006ADF7DD778CF80DA73DF35460BD4D91FFD3D784FBC2D5D538601D8747BC7199F177845060000303A40D903E0FFAF30DDF63DA7876F81A701A2B44074801D32E0008F1FC00101DE6BF0CA4F8DB5D800DD21D801D0465802FB01447D2508E0A3E97E3C80F4E702E100EC08AD7C06E4DD0F00B0CFBF370130EEB9C0C0
310
21B8FBB940E616080B605B1CC0FA25103204D303746F881C13C3BBC342100000E702AF6981E84B400B0000A005B480169001000068012DA005640000005AE0FBA7C3CDCE2D10641A8067970000003107801004200401084100421080100430DFFA887B993D0300000000E01EE09C7AAE00C9E70B968E9E1F99C47412000000
310
0049454E44AE426082
  0
ACDSRECORD
 90
        0
  2
AcDbDs::ID
280
    10
320
D7
  2
Thumbnail_Data
280
    15
 94
     1486
310
89504E470D0A1A0A0000000D4948445200000100000000B5080300000087DCD12600000300504C5445FFFFFFFFFFFFFFFFFF0000000000000000000000000000000000000000000000000000330000660000990000CC0000FF0033000033330033660033990033CC0033FF0066000066330066660066990066CC0066FF0099
310
000099330099660099990099CC0099FF00CC0000CC3300CC6600CC9900CCCC00CCFF00FF0000FF3300FF6600FF9900FFCC00FFFF3300003300333300663300993300CC3300FF3333003333333333663333993333CC3333FF3366003366333366663366993366CC3366FF3399003399333399663399993399CC3399FF33CC00
310
33CC3333CC6633CC9933CCCC33CCFF33FF0033FF3333FF6633FF9933FFCC33FFFF6600006600336600666600996600CC6600FF6633006633336633666633996633CC6633FF6666006666336666666666996666CC6666FF6699006699336699666699996699CC6699FF66CC0066CC3366CC6666CC9966CCCC66CCFF66FF0066
310
FF3366FF6666FF9966FFCC66FFFF9900009900339900669900999900CC9900FF9933009933339933669933999933CC9933FF9966009966339966669966999966CC9966FF9999009999339999669999999999CC9999FF99CC0099CC3399CC6699CC9999CCCC99CCFF99FF0099FF3399FF6699FF9999FFCC99FFFFCC0000CC00
310
33CC0066CC0099CC00CCCC00FFCC3300CC3333CC3366CC3399CC33CCCC33FFCC6600CC6633CC6666CC6699CC66CCCC66FFCC9900CC9933CC9966CC9999CC99CCCC99FFCCCC00CCCC33CCCC66CCCC99CCCCCCCCCCFFCCFF00CCFF33CCFF66CCFF99CCFFCCCCFFFFFF0000FF0033FF0066FF0099FF00CCFF00FFFF3300FF3333
310
FF3366FF3399FF33CCFF33FFFF6600FF6633FF6666FF6699FF66CCFF66FFFF9900FF9933FF9966FF9999FF99CCFF99FFFFCC00FFCC33FFCC66FFCC99FFCCCCFFCCFFFFFF00FFFF33FFFF66FFFF99FFFFCCFFFFFF0000000D0D0D1A1A1A2828283535354343435050505D5D5D6B6B6B787878868686939393A1A1A1AEAEAEBB
310
BBBBC9C9C9D6D6D6E4E4E4F1F1F1FFFFFF000000000000000000000000000000000000000000000000000000000000AD4AB4E4000002894944415478DAEDDD4D72C2300C86611D87FB1F2027F14A4B86439476A6332504481ACBD6CFAB058B523AE943ACCF769B20B76BE9BAC94D4A1700000000C0AAF45E791FAB9F010AC0
310
8E21000000C55380790029400F0000005280142005E8010000F0B84D12AB3AA780D579715995DD7B7D320592002800C587C058806547AD0176BCA4C501B03969969E631600CB26E8104001E83F042E1B0500008552201D80740058CAA7C052A807BC3ECAD200DF870940EDB5C022CD06A01903749B0A1B9D005E77843696ED
310
4B7BA89F776FB35E3E235BCF38DD10D978BF9BC918682D0E804D17880410B209960790CC000AC0C82110741E0040660001606413342A528099200000B016602D400AD00300F003F0E2FFBBEAA4402E00C90CA000141F0200D00401A009024013046010C0D4F2900241012433C0D81DA1A0006C88009018400018D904F9BB00
310
3D000000480152E0F38F3E76D78F7C29E00D4001180A70FCDE379953C01C4000F03D157631043A02340B8048174D1D16D06EBFFF7880B675B39F0F97043E7D513F5F5F78CED2DF9DA4CC2ACADDE41C0248660005A0F8100080260880F326D8EDB6B13353E0CCF13B0050004200784E01C700FE53C001408814C8BB167000A0
310
00049908BD6700207B0AD801583641ED0BF08E60F25A60F3FB77C5F77C00D399A00070E4B55177847E0FDF2180543F036454133CF7E13F733745E7AE051C00580E010000980CE07F2DE000A07C132405BAF600000008D7044901CBB54097CF09759F02C1011400E601166740A514080E209901580BD00401602A3C2505CAAF
310
056AED080507A0090E5B0C01102A05C255E71448520AC07F87000000E42C00688200D00401A00902401304802608C0DFAD8FBC8FD57B0000000000C01AE05ABAEE00C5EB0B542AAC232951A2C20000000049454E44AE426082
  0
ENDSEC
  0
SECTION
  2
Thumbnail_Data
 90
    16364
310
28000000B4000000550000000100080000000000C43B000000000000000000000000000000000000000000000000FF0000FFFF0000FF0000FFFF0000FF000000FF00FF00FFFFFF0080808000C0C0C0000000FF007F7FFF000000CC006666CC00000099004C4C990000007F003F3F7F0000004C0026264C00003FFF007F9FFF
310
000033CC00667FCC00002699004C5F9900001F7F003F4F7F0000134C00262F4C00007FFF007FBFFF000066CC006699CC00004C99004C729900003F7F003F5F7F0000264C0026394C0000BFFF007FDFFF000099CC0066B2CC00007299004C859900005F7F003F6F7F0000394C0026424C0000FFFF007FFFFF0000CCCC0066CC
310
CC00009999004C999900007F7F003F7F7F00004C4C00264C4C0000FFBF007FFFDF0000CC990066CCB200009972004C998500007F5F003F7F6F00004C3900264C420000FF7F007FFFBF0000CC660066CC990000994C004C997200007F3F003F7F5F00004C2600264C390000FF3F007FFF9F0000CC330066CC7F00009926004C
310
995F00007F1F003F7F4F00004C1300264C2F0000FF00007FFF7F0000CC000066CC6600009900004C994C00007F00003F7F3F00004C0000264C26003FFF00009FFF7F0033CC00007FCC6600269900005F994C001F7F00004F7F3F00134C00002F4C26007FFF0000BFFF7F0066CC000099CC66004C99000072994C003F7F0000
310
5F7F3F00264C0000394C2600BFFF0000DFFF7F0099CC0000B2CC66007299000085994C005F7F00006F7F3F00394C0000424C2600FFFF0000FFFF7F00CCCC0000CCCC66009999000099994C007F7F00007F7F3F004C4C00004C4C2600FFBF0000FFDF7F00CC990000CCB266009972000099854C007F5F00007F6F3F004C3900
310
004C422600FF7F0000FFBF7F00CC660000CC996600994C000099724C007F3F00007F5F3F004C2600004C392600FF3F0000FF9F7F00CC330000CC7F660099260000995F4C007F1F00007F4F3F004C1300004C2F2600FF000000FF7F7F00CC000000CC66660099000000994C4C007F0000007F3F3F004C0000004C262600FF00
310
3F00FF7F9F00CC003300CC667F0099002600994C5F007F001F007F3F4F004C0013004C262F00FF007F00FF7FBF00CC006600CC66990099004C00994C72007F003F007F3F5F004C0026004C263900FF00BF00FF7FDF00CC009900CC66B20099007200994C85007F005F007F3F6F004C0039004C264200FF00FF00FF7FFF00CC
310
00CC00CC66CC0099009900994C99007F007F007F3F7F004C004C004C264C00BF00FF00DF7FFF009900CC00B266CC0072009900854C99005F007F006F3F7F0039004C0042264C007F00FF00BF7FFF006600CC009966CC004C009900724C99003F007F005F3F7F0026004C0039264C003F00FF009F7FFF003300CC007F66CC00
310
260099005F4C99001F007F004F3F7F0013004C002F264C00333333005B5B5B0084848400ADADAD00D6D6D600FFFFFF0000000000000000000000000000000000000000000000000000000000000000000000000000000000000000000000000000000000000000000000000000000000000000000000000000000000000000
310
00000000000000000000000000000000000000000000000000000000000000000000000000000000000000000000000000000000000000000000000000000000000000000000000000000000000000000000000000000000000000000000000000000000000000000000000000000000000000000000000000000000000000
310
00000000000000000000000000000000000000000000000000000000000000000000000000000000000000000000000000000000000000000000000000000000000000000000000000000000000000000000000000000000000000000000000000000000000000000000000000000000000000000000000000000000000000
310
00000000000000000000000000000000000000000000000000000000000000000000000000000000000000000000000000000000000000000000000000000000000000000000000000000000000000000000000000000000000000000000000000000000000000000000000000000000000000000000000000000000000000
310
00000000000000000000000000000000000000000000000000000000000000000000000000000000000000000000000000000000000000000000000000000000000000000000000000000000000000000000000000000000000000000000000000000000000000000000000000000000000000000000000000000000000000
310
00000000000000000000000000000000000000000000000000000000000000000000000000000000000000000000000000000000000000000000000000000000000000000000000000000000000000000000000000000000000000000000000000000000000000000000000000000000000000000000000000000000000000
310
00000000000000000000000000000000000000000000000000000000000000000000000000000000000000000000000000000000000000000000000000000000000000000000000000000000000000000000000000000000000000000000000000000000000000000000000000000000000000000000000000000000000000
310
00000000000000000000000000000000000000000000000000000000000000000000000000000000000000000000000000000000000000000000000000000000000000000000000000000000000000000000000000000000000000000000000000000000000000000000000000000000000000000000000000000000000000
310
00000000000000000000000000000000000000000000000000000000000000000000000000000000000000000000000000000000000000000000000000000000000000000000000000000000000000000000000000000000000000000000000000000000000000000000000000000000000000000000000000000000000000
310
00000000000000000000000000000000000000000000000000000000000000000000000000000000000000000000000000000000000000000000000000000000000000000000000000000000000000000000000000000000000000000000000000000000000000000000000000000000000000000000000000000000000000
310
00000000000000000000000000000000000000000000000000000000000000000000000000000000000000000000000000000000000000000000000000000000000000000000000000000000000000000000000000000000000000000000000000000000000000000000000000000000000000000000000000000000000000
310
00000000000000000000000000000000000000000000000000000000000000000000000000000000000000000000000000000000000000000000000000000000000000000000000000000000000000000000000000000000000000000000000000000000000000000000000000000000000000000000000000000000000000
310
00000000000000000000000000000000000000000000000000000000000000000000000000000000000000000000000000000000000000000000000000000000000000000000000000000000000000000000000000000000000000000000000000000000000000000000000000000000000000000000000000000000000000
310
00000000000000000000000000000000000000000000000000000000000000000000000000000000000000000000000000000000000000000000000000000000000000000000000000000000000000000000000000000000000000000000000000000000000000000000000000000000000000000000000000000000000000
310
00000000000000000000000000000000000000000000000000000000000000000000000000000000000000000000000000000000000000000000000000000000000000000000000000000000000000000000000000000000000000000000000000000000000000000000000000000000000000000000000000000000000000
310
00000000000000000000000000000000000000000000000000000000000000000000000000000000000000000000000000000000000000000000000000000000000000000000000000000000000000000000000000000000000000000000000000000000000000000000000000000000000000000000000000000000000000
310
00000000000000000000000000000000000000000000000000000000000000000000000000000000000000000000000000000000000000000000000000000000000000000000000000000000000000000000000000000000000000000000000000000000000000000000000000000000000000000000000000000000000000
310
00000000000000000000000000000000000000000000000000000000000000000000000000000000000000000000000000000000000000000000000000000000000000000000000000000000000000000000000000000000000000000000000000000000000000000000000000000000000000000000000000000000000000
310
00000000000000000000000000000000000000000000000000000000000000000000000000000000000000000000000000000000000000000000000000000000000000000000000000000000000000000000000000000000000000000000000000000000000000000000000000000000000000000000000000000000000000
310
00000000000000000000000000000000000000000000000000000000000000000000000000000000000000000000000000000000000000000000000000000000000000000000000000000000000000000000000000000000000000000000000000000000000000000000000000000000000000000000000000000000000000
310
00000000000000000000000000000000000000000000000000000000000000000000000000000000000000000000000000000000000000000000000000000000000000000000000000000000000000000000000000000000000000000000000000000000000000000000000000000000000000000000000000000000000000
310
00000000000000000000000000000000000000000000000000000000000000000000000000000000000000000000000000000000000000000000000000000000000000000000000000000000000000000000000000000000000000000000000000000000000000000000000000000000000000000000000000000000000000
310
00000000000000000000000000000000000000000000000000000000000000000000000000000000000000000000000000000000000000000000000000000000000000000000000000000000000000000000000000000000000000000000000000000000000000000000000000000000000000000000000000000000000000
310
00000000000000000000000000000000000000000000000000000000000000000000000000000000000000000000000000000000000000000000000000000000000000000000000000000000000000000000000000000000000000000000000000000000000000000000000000000000000000000000000000000000000000
310
00000000000000000000000000000000000000000000000000000000000000000000000000000000000000000000000000000000000000000000000000000000000000000000000000000000000000000000000000000000000000000000000000000000000000000000000000000000000000000000000000000000000000
310
00000000000000000000000000000000000000000000000000000000000000000000000000000000000000000000000000000000000000000000000000000000000000000000000000000000000000000000000000000000000000000000000000000000000000000000000000000000000000000000000000000000000000
310
00000000000000000000000000000000000000000000000000000000000000000000000000000000000000000000000000000000000000000000000000000000000000000000000000000000000000000000000000000000000000000000000000000000000000000000000000000000000000000000000000000000000000
310
00000000000000000000000000000000000000000000000000000000000000000000000000000000000000000000000000000000000000000000000000000000000000000000000000000000000000000000000000000000000000000000000000000000000000000000000000000000000000000000000000000000000000
310
00000000000000000000000000000000000000000000000000000000000000000000000000000000000000000000000000000000000000000000000000000000000000000000000000000000000000000000000000000000000000000000000000000000000000000000000000000000000000000000000000000000000000
310
00000000000000000000000000000000000000000000000000000000000000000000000000000000000000000000000000000000000000000000000000000000000000000000000000000000000000000000000000000000000000000000000000000000000000000000000000000000000000000000000000000000000000
310
00000000000000000000000000000000000000000000000000000000000000000000000000000000000000000000000000000000000000000000000000000000000000000000000000000000000000000000000000000000000000000000000000000000000000000000000000000000000000000000000000000000000000
310
00000000000000000000000000000000000000000000000000000000000000000000000000000000000000000000000000000000000000000000000000000000000000000000000000000000000000000000000000000000000000000000000000000000000000000000000000000000000000000000000000000000000000
310
00000000070707070707070707070707070707070707070707070707070707070707070707070707070707070707070707070707070707070707070700000000000000000000000000000000000000000000000000000000000000000000000000000000000000000000000000000000000000000000000000000000000000
310
00000000000000000000000000000000000000000000000000000000000000000000000000000000000000000000000000000000000000000007070707070707070707070707070707070707070707070707070707070707070707070707070707070707070707070707070707070707070000000000000000000000000000
310
00000000000000000000000000000000000000000000000000000000000000000000000000000000000000000000000000000000000000000000000000000000000000000000000000000000000000000000000000000000000000000000000000000000000000000000000000000707000000000007000000000000000000
310
00000000000000000000000000000000000000000000000000000000000000000000000000070700000000000000000000000000000000000000000000000000000000000000000000000000000000000000000000000000000000000000000000000000000000000000000000000000000000000000000000000000000000
310
00000000000000000000000000000000000000000000000000000000000000000000000007070000000000070000000000000000000000000000000000000000000000000000000000000000000000000000000000000000000007070000000000000000000000000000000000000000000000000000000000000000000000
310
00000000000000000000000000000000000000000000000000000000000000000000000000000000000000000000000000000000000000000000000000000000000000000000000000000000000000000000000000000000000707000000000007000000000000000000000000000000000000000000000000000000000000
310
00000000000000000000000000000000070700000000000000000000000000000000000000000000000000000000000000000000000000000000000000000000000000000000000000000000000000000000000000000000000000000000000000000000000000000000000000000000000000000000000000000000000000
310
00000000000000000000000000000007070000000000070000000000000000000000000000000000000000000000000000000000000000000000000000000000000000000007070000000000000000000000000000000000000000000000000000000000000000000000000000000000000000000000000000000000000000
310
00000000000000000000000000000000000000000000000000000000000000000000000000000000000000000000000000000000000000000000000000000000000000000707070707070707070707070707070707070707070707070707070707070707070707070707070707070707070707070707070707070707000000
310
00000000000000000000000000000000000000000000000000000000000000000000000000000000000000000000000000000000000000000000000000000000000000000000000000000000000000000000000000000000000000000000000000000000000000000000000000000000000000000000000000070707000000
310
00070000000000000000000000000000000000000707070700000000000000000000000000000000000000000000000707070000000000000000000000000000000000000000000000000000000000000000000000000000000000000000000000000000000000000000000000000000000000000000000000000000000000
310
00000000000000000000000000000000000000000000000000000000000000000000000000000000000000000000000707000000000007000000000000000000000000000000000000070707070000000000000000000000000000000000000000000000000707000000000000000000000000000000000000000000000000
310
00000000000000000000000000000000000000000000000000000000000000000000000000000000000000000000000000000000000000000000000000000000000000000000000000000000000000000000000000000000000000000000000000000000070700000000000700000000000000000000000000000000000000
310
00000000000000000000000000000000000000000000000000000007070000000000000000000000000000000000000000000000000000000000000000000000000000000000000000000000000000000000000000000000000000000000000000000000000000000000000000000000000000000000000000000000000000
310
00000000000000000000000000000000000000000000000000000707000000000007000000000000000000000000000000000000000000000000000000000000000000000000000000000000000000000707000000000000000000000000000000000000000000000000000000000000000000000000000000000000000000
310
00000000000000000000000000000000000000000000000000000000000000000000000000000000000000000000000000000000000000000000000000000000000000000000000000000000000000070700000000000700000000000000000000000000000000000000000000000000000000000000000000000000000000
310
00000000000007070000000000000000000000000000000000000000000000000000000000000000000000000000000000000000000000000000000000000000000000000000000000000000000000000000000000000000000000000000000000000000000000000000000000000000000000000000000000000000000000
310
00000000000707000000000007000000000000000000000000000000000000000000000000000000000000000000000000000000000000000000000707000000000000000000000000000000000000000000000000000000000000000000000000000000000000000000000000000000000000000000000000000000000000
310
00000000000000000000000000000000000000000000000000000000000000000000000000000000000000000000000000000000000000000000070700000000000700000000000000000000000000000000000000000000000000000000000000000000000000000000000000000000070700000000000000000000000000
310
00000000000000000000000000000000000000000000000000000000000000000000000000000000000000000000000000000000000000000000000000000000000000000000000000000000000000000000000000000000000000000000000000000000000000000000000000000007070000000000070000000000000000
310
00000000000000000000000000000000000000000000000000000000000000000000000000000707000000000000000000000000000000000000000000000000000000000000000000000000000000000000000000000000000000000000000000000000000000000000000000000000000000000000000000000000000000
310
00000000000000000000000000000000000000000000000000000000000000000000000000070700000000000700000000000000000000000000000000000000000000000000000000000000000000000000000000000000000000070700000000000000000000000000000000000000000000000000000000000000000000
310
00000000000000000000000000000000000000000000000000000000000000000000000000000000000000000000000000000000000000000000000000000000000000000000000000000000000000000000000000000000000007070000000000070000000000000000000000000000000000000000000000000000000000
310
00000000000000000000000000000000000707000000000000000000000000000000000000000000000000000000000000000000000000000000000000000000000000000000000000000000000000000000000000000000000000000000000000000000000000000000000000000000000000000000000000000000000000
310
00000000000000000000000000000000070700000000070700000000000000000000000000000000000000000000000000000000000000000000000000000000000000000000070700000000000000000000000000000000000000000000000000000000000000000000000000000000000000000000000000000000000000
310
00000000000000000000000000000000000000000000000000000000000000000000000000000000000000000000000000000000000000000000000000000000000000000007070000000007070000000000000000000000000000000000000000000000000000000000000000000000000000000000000000000007070000
310
00000000000000000000000000000000000000000000000000000000000000000000000000000000000000000000000000000000000000000000000000000000000000000000000000000000000000000000000000000000000000000000000000000000000000000000000000000000000000000000000000000707000000
310
00070700000000000000000000000007070707070707070707070707070707000000000000000000000000000000000000070700000000000000000000000000000000000000000000000000000000000000000000000000000000000000000000000000000000000000000000000000000000000000000000000000000000
310
00000000000000000000000000000000000000000000000000000000000000000000000000000000000000000000000007070000000007070000000000000000000000000707070707070707070707070707070700000000000000000000000000000000000007070000000000000000000000000000000000000000000000
310
00000000000000000000000000000000000000000000000000000000000000000000000000000000000000000000000000000000000000000000000000000000000000000000000000000000000000000000000000000000000000000000000000000000000707000000000007000000000000000000000000000000000000
310
00000000000000000000000000000000000000000000000000000000070700000000000000000000000000000000000000000000000000000000000000000000000000000000000000000000000000000000000000000000000000000000000000000000000000000000000000000000000000000000000000000000000000
310
00000000000000000000000000000000000000000000000000000007070000000000070000000000000000000000000000000000000000000000000000000000000000000000000000000000000000000007070000000000000000000000000000000000000000000000000000000000000000000000000000000000000000
310
00000000000000000000000000000000000000000000000000000000000000000000000000000000000000000000000000000000000000000000000000000000000000000000000000000000000000000707000000000007000000000000000000000000000000000000000000000000000000000000000000000000000000
310
00000000000000070700000000000000000000000000000000000000000000000000000000000000000000000000000000000000000000000000000000000000000000000000000000000000000000000000000000000000000000000000000000000000000000000000000000000000000000000000000000000000000000
310
00000000000007070000000000070000000000000000000000000000000000000000000000000000000000000000000000000000000000000000000007070000000000000000000000000000000000000000000000000000000000000000000000000000000000000000000000000000000000000000000000000000000000
310
00000000000000000000000000000000000000000000000000000000000000000000000000000000000000000000000000000000000000000000000707000000000007000000000000000000000000000000000000000000000000000000000000000000000000000000000000000000000707000000000000000000000000
310
00000000000000000000000000000000000000000000000000000000000000000000000000000000000000000000000000000000000000000000000000000000000000000000000000000000000000000000000000000000000000000000000000000000000000000000000000000000070700000000000700000000000000
310
00000000000000000000000000000000000000000000000000000000000000000000000000000007070000000000000000000000000000000000000000000000000000000000000000000000000000000000000000000000000000000000000000000000000000000000000000000000000000000000000000000000000000
310
00000000000000000000000000000000000000000000000000000000000000000000000000000707000000000007000000000000000000000000000000000000000000000000000000000000000000000000000000000000000000000707000000000000000000000000000000000000000000000000000000000000000000
310
00000000000000000000000000000000000000000000000000000000000000000000000000000000000000000000000000000000000000000000000000000000000000000000000000000000000000000000000000000000000000070700000000000700000000000000000000000000000000000000000000000000000000
310
0000000000000000000007FA00000000000007070000000000000000000000000000000000000000000000000000000000000000000000000000000000000000000000000000000000000000000000000000000000000000000000000000000000000000000000000000000000000000000000000000000000000000000000
310
0000000000000000000000000000000000070700000000000700000000000000000000000000000000000000000000000000000000000000000000000000070707FB00000000000707000000000000000000000000000000000000000000000000000000000000000000000000000000000000000000000000000000000000
310
00000000000000000000000000000000000000000000000000000000000000000000000000000000000000000000000000000000000000000000000000000000000000000000070700000000000700000000000000000000000000000000000000000000000000000000000000000000000000070707070800000000070700
310
00000000000000000000000000000000000000000000000000000000000000000000000000000000000000000000000000000000000000000000000000000000000000000000000000000000000000000000000000000000000000000000000000000000000000000000000000000000000000000000000000000007070000
310
00000007000000000000000000000000000000000000000000000000000000000000000000000000000007070707FD0000000707000000000000000000000000000000000000000000000000000000000000000000000000000000000000000000000000000000000000000000000000000000000000000000000000000000
310
000000000000000000000000000000000000000000000000000000000000000000000000000000000000000000000000000707000000000007000000000000000000000000000000000000000000000000000000000000000000000000000000000700FBFE0000070700000000000000000000000000000000000000000000
310
00000000000000000000000000000000000000000000000000000000000000000000000000000000000000000000000000000000000000000000000000000000000000000000000000000000000000000000000000000000000000000000000000000000000007070000000000070000000000000000000000000000000000
310
00000000000000000000000000000000000000000000000000000707000707000000000000000000000000000000000000000000000000000000000000000000000000000000000000000000000000000000000000000000000000000000000000000000000000000000000000000000000000000000000000000000000000
310
00000000000000000000000000000000000000000000000000000000070700000000000700000000000000000000000000000000000000000000000000000000000000000000000000000000000000000707070700000000000000000000000000000000000000000000000000000000000000000000000000000000000000
310
00000000000000000000000000000000000000000000000000000000000000000000000000000000000000000000000000000000000000000000000000000000000000000000000000000000000000000007070707070707070707070707070707070707070707070707070707070707070707070707070707070707070707
310
07070707070707070707000000000000000000000000000000000000000000000000000000000000000000000000000000000000000000000000000000000000000000000000000000000000000000000000000000000000000000000000000000000000000000000000000000000000000000000000000000000000000000
310
00000000000000070707070707070707070707070707070707070707070707070707070707070707070707070707070707070707070707070707070707070700000000000000000000000000000000000000000000000000000000000000000000000000000000000000000000000000000000000000000000000000000000
310
00000000000000000000000000000000000000000000000000000000000000000000000000000000000000000000000000000000000000000000000000000000000000000000000000000000000000000000000000000000000000000000000000000000000000000000000000000000000000000000000000000000000000
310
00000000000000000000000000000000000000000000000000000000000000000000000000000000000000000000000000000000000000000000000000000000000000000000000000000000000000000000000000000000000000000000000000000000000000000000000000000000000000000000000000000000000000
310
00000000000000000000000000000000000000070707070707000000000000000000000000000000000000000000000000000000000000000000000000000000000000000000000000000000000000000000000000000000000000000000000000000000000000000000000000000000000000000000000000000000000000
310
00000000000000000000000000000000000000000000000000000000000000000000000000000000000000000000000000000000000000000000000000000000000000000000000007070707070700000000000000000000000000000000000000000000000000000000000000000000000000000000000000000000000000
310
00000000000000000000000000000000000000000000000000000000000000000000000000000000000000000000000000000000000000000000000000000000000000000000000000000000000000000000000000000000000000000000000000000000000000000000000000000000000000000000000000000000000000
310
00000000000000000000000000000000000000000000000000000000000000000000000000000000000000000000000000000000000000000000000000000000000000000000000000000000000000000000000000000000000000000000000000000000000000000000000000000000000000000000000000000000000000
310
00000000000000000000000000000000000000000000000000000000000000000000000000000000000000000000000000000000000000000000000000000000000000000000000000000000000000000000000000000000000000000000000000000000000000000000000000000000000000000000000000000000000000
310
00000000000000000000000000000000000000000000000000000000000000000000000000000000000000000000000000000000000000000000000000000000000000000000000000000000000000000000000000000000000000000000000000000000000000000000000000000000000000000000000000000000000000
310
00000000000000000000000000000000000000000000000000000000000000000000000000000000000000000000000000000000000000000000000000000000000000000000000000000000000000000000000000000000000000000000000000000000000000000000000000000000000000000000000000000000000000
310
00000000000000000000000000000000000000000000000000000000000000000000000000000000000000000000000000000000000000000000000000000000000000000000000000000000000000000000000000000000000000000000000000000000000000000000000000000000000000000000000000000000000000
310
00000000000000000000000000000000000000000000000000000000000000000000000000000000000000000000000000000000000000000000000000000000000000000000000000000000000000000000000000000000000000000000000000000000000000000000000000000000000000000000000000000000000000
310
00000000000000000000000000000000000000000000000000000000000000000000000000000000000000000000000000000000000000000000000000000000000000000000000000000000000000000000000000000000000000000000000000000000000000000000000000000000000000000000000000000000000000
310
00000000000000000000000000000000000000000000000000000000000000000000000000000000000000000000000000000000000000000000000000000000000000000000000000000000000000000000000000000000000000000000000000000000000000000000000000000000000000000000000000000000000000
310
00000000000000000000000000000000000000000000000000000000000000000000000000000000000000000000000000000000000000000000000000000000000000000000000000000000000000000000000000000000000000000000000000000000000000000000000000000000000000000000000000000000000000
310
00000000000000000000000000000000000000000000000000000000000000000000000000000000000000000000000000000000000000000000000000000000000000000000000000000000000000000000000000000000000000000000000000000000000000000000000000000000000000000000000000000000000000
310
00000000000000000000000000000000000000000000000000000000000000000000000000000000000000000000000000000000000000000000000000000000000000000000000000000000000000000000000000000000000000000000000000000000000000000000000000000000000000000000000000000000000000
310
00000000000000000000000000000000000000000000000000000000000000000000000000000000000000000000000000000000000000000000000000000000000000000000000000000000000000000000000000000000000000000000000000000000000000000000000000000000000000000000000000000000000000
310
00000000000000000000000000000000000000000000000000000000000000000000000000000000000000000000000000000000000000000000000000000000000000000000000000000000000000000000000000000000000000000000000000000000000000000000000000000000000000000000000000000000000000
310
00000000000000000000000000000000000000000000000000000000000000000000000000000000000000000000000000000000000000000000000000000000000000000000000000000000000000000000000000000000000000000000000000000000000000000000000000000000000000000000000000000000000000
310
00000000000000000000000000000000000000000000000000000000000000000000000000000000000000000000000000000000000000000000000000000000000000000000000000000000000000000000000000000000000000000000000000000000000000000000000000000000000000000000000000000000000000
310
00000000000000000000000000000000000000000000000000000000000000000000000000000000000000000000000000000000000000000000000000000000000000000000000000000000000000000000000000000000000000000000000000000000000000000000000000000000000000000000000000000000000000
310
00000000000000000000000000000000000000000000000000000000000000000000000000000000000000000000000000000000000000000000000000000000000000000000000000000000000000000000000000000000000000000000000000000000000000000000000000000000000000000000000000000000000000
310
00000000000000000000000000000000000000000000000000000000000000000000000000000000000000000000000000000000000000000000000000000000000000000000000000000000000000000000000000000000000000000000000000000000000000000000000000000000000000000000000000000000000000
310
00000000000000000000000000000000000000000000000000000000000000000000000000000000000000000000000000000000000000000000000000000000000000000000000000000000000000000000000000000000000000000000000000000000000000000000000000000000000000000000000000000000000000
310
00000000000000000000000000000000000000000000000000000000000000000000000000000000000000000000000000000000000000000000000000000000000000000000000000000000000000000000000000000000000000000000000000000000000000000000000000000000000000000000000000000000000000
310
00000000000000000000000000000000000000000000000000000000000000000000000000000000000000000000000000000000000000000000000000000000000000000000000000000000000000000000000000000000000000000000000000000000000000000000000000000000000000000000000000000000000000
310
00000000000000000000000000000000000000000000000000000000000000000000000000000000000000000000000000000000000000000000000000000000000000000000000000000000000000000000000000000000000000000000000000000000000000000000000000000000000000000000000000000000000000
310
00000000000000000000000000000000000000000000000000000000000000000000000000000000000000000000000000000000000000000000000000000000000000000000000000000000000000000000000000000000000000000000000000000000000000000000000000000000000000000000000000000000000000
310
00000000000000000000000000000000000000000000000000000000000000000000000000000000000000000000000000000000000000000000000000000000000000000000000000000000000000000000000000000000000000000000000000000000000000000000000000000000000000000000000000000000000000
310
00000000000000000000000000000000000000000000000000000000000000000000000000000000000000000000000000000000000000000000000000000000000000000000000000000000000000000000000000000000000000000000000000000000000000000000000000000000000000000000000000000000000000
310
00000000000000000000000000000000000000000000000000000000000000000000000000000000000000000000000000000000000000000000000000000000000000000000000000000000000000000000000000000000000000000000000000000000000000000000000000000000000000000000000000000000000000
310
00000000000000000000000000000000000000000000000000000000000000000000000000000000000000000000000000000000000000000000000000000000000000000000000000000000000000000000000000000000000000000000000000000000000000000000000000000000000000000000000000000000000000
310
00000000000000000000000000000000000000000000000000000000000000000000000000000000000000000000000000000000000000000000000000000000000000000000000000000000000000000000000000000000000000000000000000000000000000000000000000000000000000000000000000000000000000
310
00000000000000000000000000000000000000000000000000000000000000000000000000000000000000000000000000000000000000000000000000000000000000000000000000000000000000000000000000000000000000000000000000000000000000000000000000000000000000000000000000000000000000
310
00000000000000000000000000000000000000000000000000000000000000000000000000000000000000000000000000000000000000000000000000000000000000000000000000000000000000000000000000000000000000000000000000000000000000000000000000000000000000000000000000000000000000
310
00000000000000000000000000000000000000000000000000000000000000000000000000000000000000000000000000000000000000000000000000000000000000000000000000000000000000000000000000000000000000000000000000000000000000000000000000000000000000000000000000000000000000
310
000000000000000000000000000000000000000000000000000000000000000000000000000000000000000000000000000000000000000000000000000000000000000000000000000000000000000000000000000000000000000000000000000000000000000000000000
  0
ENDSEC
  0
EOF
