  0
SECTION
  2
HEADER
  9
$ACADVER
  1
AC1032
  9
$ACADMAINTVER
 90
      327
  9
$DWGCODEPAGE
  3
ANSI_1252
  9
$LASTSAVEDBY
  1
AHary
  9
$REQUIREDVERSIONS
160
                 0
  9
$INSBASE
 10
0.0
 20
0.0
 30
0.0
  9
$EXTMIN
 10
496.5951046082095
 20
310.7954099492849
 30
-0.00000001
  9
$EXTMAX
 10
1459.558425983487
 20
1328.460609513433
 30
0.00000001
  9
$LIMMIN
 10
0.0
 20
0.0
  9
$LIMMAX
 10
420.0
 20
297.0
  9
$ORTHOMODE
 70
     1
  9
$REGENMODE
 70
     1
  9
$FILLMODE
 70
     1
  9
$QTEXTMODE
 70
     0
  9
$MIRRTEXT
 70
     0
  9
$LTSCALE
 40
1.0
  9
$ATTMODE
 70
     1
  9
$TEXTSIZE
 40
2.5
  9
$TRACEWID
 40
1.0
  9
$TEXTSTYLE
  7
Standard
  9
$CLAYER
  8
0
  9
$CELTYPE
  6
ByLayer
  9
$CECOLOR
 62
   256
  9
$CELTSCALE
 40
1.0
  9
$DISPSILH
 70
     0
  9
$DIMSCALE
 40
1.0
  9
$DIMASZ
 40
2.5
  9
$DIMEXO
 40
0.625
  9
$DIMDLI
 40
3.75
  9
$DIMRND
 40
0.0
  9
$DIMDLE
 40
0.0
  9
$DIMEXE
 40
1.25
  9
$DIMTP
 40
0.0
  9
$DIMTM
 40
0.0
  9
$DIMTXT
 40
2.5
  9
$DIMCEN
 40
2.5
  9
$DIMTSZ
 40
0.0
  9
$DIMTOL
 70
     0
  9
$DIMLIM
 70
     0
  9
$DIMTIH
 70
     0
  9
$DIMTOH
 70
     0
  9
$DIMSE1
 70
     0
  9
$DIMSE2
 70
     0
  9
$DIMTAD
 70
     1
  9
$DIMZIN
 70
     8
  9
$DIMBLK
  1

  9
$DIMASO
 70
     1
  9
$DIMSHO
 70
     1
  9
$DIMPOST
  1

  9
$DIMAPOST
  1

  9
$DIMALT
 70
     0
  9
$DIMALTD
 70
     3
  9
$DIMALTF
 40
0.03937007874016
  9
$DIMLFAC
 40
1.0
  9
$DIMTOFL
 70
     1
  9
$DIMTVP
 40
0.0
  9
$DIMTIX
 70
     0
  9
$DIMSOXD
 70
     0
  9
$DIMSAH
 70
     0
  9
$DIMBLK1
  1

  9
$DIMBLK2
  1

  9
$DIMSTYLE
  2
ISO-25
  9
$DIMCLRD
 70
     0
  9
$DIMCLRE
 70
     0
  9
$DIMCLRT
 70
     0
  9
$DIMTFAC
 40
1.0
  9
$DIMGAP
 40
0.625
  9
$DIMJUST
 70
     0
  9
$DIMSD1
 70
     0
  9
$DIMSD2
 70
     0
  9
$DIMTOLJ
 70
     0
  9
$DIMTZIN
 70
     8
  9
$DIMALTZ
 70
     0
  9
$DIMALTTZ
 70
     0
  9
$DIMUPT
 70
     0
  9
$DIMDEC
 70
     2
  9
$DIMTDEC
 70
     2
  9
$DIMALTU
 70
     2
  9
$DIMALTTD
 70
     3
  9
$DIMTXSTY
  7
Standard
  9
$DIMAUNIT
 70
     0
  9
$DIMADEC
 70
     0
  9
$DIMALTRND
 40
0.0
  9
$DIMAZIN
 70
     0
  9
$DIMDSEP
 70
    44
  9
$DIMATFIT
 70
     3
  9
$DIMFRAC
 70
     0
  9
$DIMLDRBLK
  1

  9
$DIMLUNIT
 70
     2
  9
$DIMLWD
 70
    -2
  9
$DIMLWE
 70
    -2
  9
$DIMTMOVE
 70
     0
  9
$DIMFXL
 40
1.0
  9
$DIMFXLON
 70
     0
  9
$DIMJOGANG
 40
0.7853981633974483
  9
$DIMTFILL
 70
     0
  9
$DIMTFILLCLR
 70
     0
  9
$DIMARCSYM
 70
     0
  9
$DIMLTYPE
  6

  9
$DIMLTEX1
  6

  9
$DIMLTEX2
  6

  9
$DIMTXTDIRECTION
 70
     0
  9
$LUNITS
 70
     2
  9
$LUPREC
 70
     4
  9
$SKETCHINC
 40
1.0
  9
$FILLETRAD
 40
0.0
  9
$AUNITS
 70
     0
  9
$AUPREC
 70
     0
  9
$MENU
  1
.
  9
$ELEVATION
 40
0.0
  9
$PELEVATION
 40
0.0
  9
$THICKNESS
 40
0.0
  9
$LIMCHECK
 70
     0
  9
$CHAMFERA
 40
0.0
  9
$CHAMFERB
 40
0.0
  9
$CHAMFERC
 40
0.0
  9
$CHAMFERD
 40
0.0
  9
$SKPOLY
 70
     0
  9
$TDCREATE
 40
2460671.232962963
  9
$TDUCREATE
 40
2460671.441299202
  9
$TDUPDATE
 40
2460831.527800926
  9
$TDUUPDATE
 40
2460831.694467592
  9
$TDINDWG
 40
0.1682949653
  9
$TDUSRTIMER
 40
0.1682946412
  9
$USRTIMER
 70
     1
  9
$ANGBASE
 50
0.0
  9
$ANGDIR
 70
     0
  9
$PDMODE
 70
     0
  9
$PDSIZE
 40
0.0
  9
$PLINEWID
 40
0.0
  9
$SPLFRAME
 70
     0
  9
$SPLINETYPE
 70
     6
  9
$SPLINESEGS
 70
     8
  9
$HANDSEED
  5
64A
  9
$SURFTAB1
 70
     6
  9
$SURFTAB2
 70
     6
  9
$SURFTYPE
 70
     6
  9
$SURFU
 70
     6
  9
$SURFV
 70
     6
  9
$UCSBASE
  2

  9
$UCSNAME
  2

  9
$UCSORG
 10
0.0
 20
0.0
 30
0.0
  9
$UCSXDIR
 10
1.0
 20
0.0
 30
0.0
  9
$UCSYDIR
 10
0.0
 20
1.0
 30
0.0
  9
$UCSORTHOREF
  2

  9
$UCSORTHOVIEW
 70
     0
  9
$UCSORGTOP
 10
0.0
 20
0.0
 30
0.0
  9
$UCSORGBOTTOM
 10
0.0
 20
0.0
 30
0.0
  9
$UCSORGLEFT
 10
0.0
 20
0.0
 30
0.0
  9
$UCSORGRIGHT
 10
0.0
 20
0.0
 30
0.0
  9
$UCSORGFRONT
 10
0.0
 20
0.0
 30
0.0
  9
$UCSORGBACK
 10
0.0
 20
0.0
 30
0.0
  9
$PUCSBASE
  2

  9
$PUCSNAME
  2

  9
$PUCSORG
 10
0.0
 20
0.0
 30
0.0
  9
$PUCSXDIR
 10
1.0
 20
0.0
 30
0.0
  9
$PUCSYDIR
 10
0.0
 20
1.0
 30
0.0
  9
$PUCSORTHOREF
  2

  9
$PUCSORTHOVIEW
 70
     0
  9
$PUCSORGTOP
 10
0.0
 20
0.0
 30
0.0
  9
$PUCSORGBOTTOM
 10
0.0
 20
0.0
 30
0.0
  9
$PUCSORGLEFT
 10
0.0
 20
0.0
 30
0.0
  9
$PUCSORGRIGHT
 10
0.0
 20
0.0
 30
0.0
  9
$PUCSORGFRONT
 10
0.0
 20
0.0
 30
0.0
  9
$PUCSORGBACK
 10
0.0
 20
0.0
 30
0.0
  9
$USERI1
 70
     0
  9
$USERI2
 70
     0
  9
$USERI3
 70
     0
  9
$USERI4
 70
     0
  9
$USERI5
 70
     0
  9
$USERR1
 40
0.0
  9
$USERR2
 40
0.0
  9
$USERR3
 40
0.0
  9
$USERR4
 40
0.0
  9
$USERR5
 40
0.0
  9
$WORLDVIEW
 70
     1
  9
$SHADEDGE
 70
     3
  9
$SHADEDIF
 70
    70
  9
$TILEMODE
 70
     1
  9
$MAXACTVP
 70
    64
  9
$PINSBASE
 10
0.0
 20
0.0
 30
0.0
  9
$PLIMCHECK
 70
     0
  9
$PEXTMIN
 10
0.0
 20
0.0
 30
0.0
  9
$PEXTMAX
 10
0.0
 20
0.0
 30
0.0
  9
$PLIMMIN
 10
0.0
 20
0.0
  9
$PLIMMAX
 10
12.0
 20
9.0
  9
$UNITMODE
 70
     0
  9
$VISRETAIN
 70
     1
  9
$PLINEGEN
 70
     0
  9
$PSLTSCALE
 70
     1
  9
$TREEDEPTH
 70
  3020
  9
$CMLSTYLE
  2
Standard
  9
$CMLJUST
 70
     0
  9
$CMLSCALE
 40
20.0
  9
$PROXYGRAPHICS
 70
     1
  9
$MEASUREMENT
 70
     1
  9
$CELWEIGHT
370
    -1
  9
$ENDCAPS
280
     0
  9
$JOINSTYLE
280
     0
  9
$LWDISPLAY
290
     0
  9
$INSUNITS
 70
     4
  9
$HYPERLINKBASE
  1

  9
$STYLESHEET
  1

  9
$XEDIT
290
     1
  9
$CEPSNTYPE
380
     0
  9
$PSTYLEMODE
290
     1
  9
$FINGERPRINTGUID
  2
{A4CAB1FC-42A2-4D6F-B95F-085582C7A8C3}
  9
$VERSIONGUID
  2
{744AF224-5079-0448-9BCF-2662B0E6FFE0}
  9
$EXTNAMES
290
     1
  9
$PSVPSCALE
 40
0.0
  9
$OLESTARTUP
290
     0
  9
$SORTENTS
280
   127
  9
$INDEXCTL
280
     0
  9
$HIDETEXT
280
     1
  9
$XCLIPFRAME
280
     2
  9
$HALOGAP
280
     0
  9
$OBSCOLOR
 70
   257
  9
$OBSLTYPE
280
     0
  9
$INTERSECTIONDISPLAY
280
     0
  9
$INTERSECTIONCOLOR
 70
   257
  9
$DIMASSOC
280
     2
  9
$PROJECTNAME
  1

  9
$CAMERADISPLAY
290
     0
  9
$LENSLENGTH
 40
50.0
  9
$CAMERAHEIGHT
 40
0.0
  9
$STEPSPERSEC
 40
2.0
  9
$STEPSIZE
 40
6.0
  9
$3DDWFPREC
 40
2.0
  9
$PSOLWIDTH
 40
0.25
  9
$PSOLHEIGHT
 40
4.0
  9
$LOFTANG1
 40
1.570796326794896
  9
$LOFTANG2
 40
1.570796326794896
  9
$LOFTMAG1
 40
0.0
  9
$LOFTMAG2
 40
0.0
  9
$LOFTPARAM
 70
     7
  9
$LOFTNORMALS
280
     1
  9
$LATITUDE
 40
37.795
  9
$LONGITUDE
 40
-122.394
  9
$NORTHDIRECTION
 40
0.0
  9
$TIMEZONE
 70
 -8000
  9
$LIGHTGLYPHDISPLAY
280
     1
  9
$TILEMODELIGHTSYNCH
280
     1
  9
$CMATERIAL
347
167
  9
$SOLIDHIST
280
     0
  9
$SHOWHIST
280
     1
  9
$DWFFRAME
280
     1
  9
$DGNFRAME
280
     1
  9
$REALWORLDSCALE
290
     1
  9
$INTERFERECOLOR
 62
   256
  9
$INTERFEREOBJVS
345
189
  9
$INTERFEREVPVS
346
186
  9
$CSHADOW
280
     0
  9
$SHADOWPLANELOCATION
 40
0.0
  0
ENDSEC
  0
SECTION
  2
CLASSES
  0
CLASS
  1
ACDBDICTIONARYWDFLT
  2
AcDbDictionaryWithDefault
  3
ObjectDBX Classes
 90
        0
 91
        1
280
     0
281
     0
  0
CLASS
  1
DICTIONARYVAR
  2
AcDbDictionaryVar
  3
ObjectDBX Classes
 90
        0
 91
       31
280
     0
281
     0
  0
CLASS
  1
TABLESTYLE
  2
AcDbTableStyle
  3
ObjectDBX Classes
 90
     4095
 91
        1
280
     0
281
     0
  0
CLASS
  1
WIPEOUTVARIABLES
  2
AcDbWipeoutVariables
  3
"WipeOut|Product Desc:     WipeOut Dbx Application|Company:          Autodesk, Inc.|WEB Address:      www.autodesk.com"
 90
        0
 91
        0
280
     0
281
     0
  0
CLASS
  1
SCALE
  2
AcDbScale
  3
ObjectDBX Classes
 90
     1153
 91
       17
280
     0
281
     0
  0
CLASS
  1
MLEADERSTYLE
  2
AcDbMLeaderStyle
  3
ACDB_MLEADERSTYLE_CLASS
 90
     4095
 91
        3
280
     0
281
     0
  0
CLASS
  1
MATERIAL
  2
AcDbMaterial
  3
ObjectDBX Classes
 90
     1153
 91
        3
280
     0
281
     0
  0
CLASS
  1
VISUALSTYLE
  2
AcDbVisualStyle
  3
ObjectDBX Classes
 90
     4095
 91
       24
280
     0
281
     0
  0
CLASS
  1
ACDBSECTIONVIEWSTYLE
  2
AcDbSectionViewStyle
  3
ObjectDBX Classes
 90
     1025
 91
        1
280
     0
281
     0
  0
CLASS
  1
ACDBDETAILVIEWSTYLE
  2
AcDbDetailViewStyle
  3
ObjectDBX Classes
 90
     1025
 91
        1
280
     0
281
     0
  0
CLASS
  1
CELLSTYLEMAP
  2
AcDbCellStyleMap
  3
ObjectDBX Classes
 90
     1152
 91
        2
280
     0
281
     0
  0
CLASS
  1
SORTENTSTABLE
  2
AcDbSortentsTable
  3
ObjectDBX Classes
 90
        0
 91
        0
280
     0
281
     0
  0
CLASS
  1
MULTILEADER
  2
AcDbMLeader
  3
ACDB_MLEADER_CLASS
 90
     1025
 91
        1
280
     0
281
     1
  0
CLASS
  1
DIMASSOC
  2
AcDbDimAssoc
  3
"AcDbDimAssoc|Product Desc:     AcDim ARX App For Dimension|Company:          Autodesk, Inc.|WEB Address:      www.autodesk.com"
 90
        0
 91
        0
280
     0
281
     0
  0
ENDSEC
  0
SECTION
  2
TABLES
  0
TABLE
  2
VPORT
  5
8
330
0
100
AcDbSymbolTable
 70
     1
  0
VPORT
  5
1CC
330
8
100
AcDbSymbolTableRecord
100
AcDbViewportTableRecord
  2
*Active
 70
     0
 10
0.0
 20
0.0
 11
1.0
 21
1.0
 12
1334.093868749976
 22
628.7679439511983
 13
0.0
 23
0.0
 14
10.0
 24
10.0
 15
10.0
 25
10.0
 16
0.0
 26
0.0
 36
1.0
 17
0.0
 27
0.0
 37
0.0
 40
1232.866517807821
 41
1.760416666666666
 42
50.0
 43
0.0
 44
0.0
 50
0.0
 51
0.0
 71
    16
 72
  1000
 73
     1
 74
     3
 75
     0
 76
     1
 77
     0
 78
     0
281
     0
 65
     1
110
0.0
120
0.0
130
0.0
111
1.0
121
0.0
131
0.0
112
0.0
122
1.0
132
0.0
 79
     0
146
0.0
348
185
 60
     3
 61
     5
292
     1
282
     1
141
0.0
142
0.0
 63
   250
421
  3355443
1001
ACAD_NAV_VCDISPLAY
1070
     3
  0
ENDTAB
  0
TABLE
  2
LTYPE
  5
5
330
0
100
AcDbSymbolTable
 70
     2
  0
LTYPE
  5
14
330
5
100
AcDbSymbolTableRecord
100
AcDbLinetypeTableRecord
  2
ByBlock
 70
     0
  3

 72
    65
 73
     0
 40
0.0
  0
LTYPE
  5
15
330
5
100
AcDbSymbolTableRecord
100
AcDbLinetypeTableRecord
  2
ByLayer
 70
     0
  3

 72
    65
 73
     0
 40
0.0
  0
LTYPE
  5
16
330
5
100
AcDbSymbolTableRecord
100
AcDbLinetypeTableRecord
  2
Continuous
 70
     0
  3
Solid line
 72
    65
 73
     0
 40
0.0
  0
LTYPE
  5
33A
330
5
100
AcDbSymbolTableRecord
100
AcDbLinetypeTableRecord
  2
ACAD_ISO02W100
 70
     0
  3
ISO dash __ __ __ __ __ __ __ __ __ __ __ __ __
 72
    65
 73
     2
 40
15.0
 49
12.0
 74
     0
 49
-3.0
 74
     0
  0
ENDTAB
  0
TABLE
  2
LAYER
  5
2
102
{ACAD_XDICTIONARY
360
FA
102
}
330
0
100
AcDbSymbolTable
 70
     9
  0
LAYER
  5
10
330
2
100
AcDbSymbolTableRecord
100
AcDbLayerTableRecord
  2
0
 70
     0
 62
     7
  6
Continuous
370
    -3
390
F
347
177
348
0
  0
LAYER
  5
267
330
2
100
AcDbSymbolTableRecord
100
AcDbLayerTableRecord
  2
Defpoints
 70
     0
 62
     7
  6
Continuous
290
     0
370
    -3
390
F
347
177
348
0
  0
LAYER
  5
268
330
2
100
AcDbSymbolTableRecord
100
AcDbLayerTableRecord
  2
尺寸標注
 70
     0
 62
     1
  6
Continuous
370
     0
390
F
347
177
348
0
1001
AcadStringInfo
1000
MIFCodePage
1070
     2
  0
LAYER
  5
269
330
2
100
AcDbSymbolTableRecord
100
AcDbLayerTableRecord
  2
細實線
 70
     0
 62
     1
  6
Continuous
370
    13
390
F
347
177
348
0
1001
AcadStringInfo
1000
MIFCodePage
1070
     2
  0
LAYER
  5
26A
330
2
100
AcDbSymbolTableRecord
100
AcDbLayerTableRecord
  2
文字
 70
     0
 62
     3
  6
Continuous
370
    30
390
F
347
177
348
0
1001
AcadStringInfo
1000
MIFCodePage
1070
     2
  0
LAYER
  5
26B
330
2
100
AcDbSymbolTableRecord
100
AcDbLayerTableRecord
  2
标注
 70
     0
 62
    80
  6
Continuous
370
    -3
390
F
347
177
348
0
1001
AcadStringInfo
1000
MIFCodePage
1070
     5
  0
LAYER
  5
26C
330
2
100
AcDbSymbolTableRecord
100
AcDbLayerTableRecord
  2
2
 70
     0
 62
     2
  6
Continuous
370
    18
390
F
347
177
348
0
1001
AcAecLayerStandard
1000

1000

  0
LAYER
  5
26D
330
2
100
AcDbSymbolTableRecord
100
AcDbLayerTableRecord
  2
3
 70
     0
 62
     3
  6
Continuous
370
    18
390
F
347
177
348
0
1001
AcAecLayerStandard
1000

1000

  0
LAYER
  5
33B
102
{ACAD_XDICTIONARY
360
33C
102
}
330
2
100
AcDbSymbolTableRecord
100
AcDbLayerTableRecord
  2
dimensions
 70
     0
 62
   210
  6
Continuous
370
    -3
390
F
347
177
348
0
1001
AcAecLayerStandard
1000

1000

1001
AcCmTransparency
1071
        0
  0
ENDTAB
  0
TABLE
  2
STYLE
  5
3
330
0
100
AcDbSymbolTable
 70
     3
  0
STYLE
  5
11
330
3
100
AcDbSymbolTableRecord
100
AcDbTextStyleTableRecord
  2
Standard
 70
     0
 40
0.0
 41
1.0
 50
0.0
 71
     0
 42
2.5
  3
arial.ttf
  4

1001
ACAD
1000
Arial
1071
       34
  0
STYLE
  5
23E
330
3
100
AcDbSymbolTableRecord
100
AcDbTextStyleTableRecord
  2
Annotative
 70
     0
 40
0.0
 41
1.0
 50
0.0
 71
     0
 42
2.5
  3
arial.ttf
  4

1001
AcadAnnotative
1000
AnnotativeData
1002
{
1070
     1
1070
     1
1002
}
1001
ACAD
1000
Arial
1071
       34
  0
STYLE
  5
33D
330
3
100
AcDbSymbolTableRecord
100
AcDbTextStyleTableRecord
  2
Arial
 70
     0
 40
0.0
 41
1.0
 50
0.0
 71
     0
 42
0.2
  3
arial.ttf
  4

1001
ACAD
1000
Arial
1071
       34
  0
ENDTAB
  0
TABLE
  2
VIEW
  5
6
330
0
100
AcDbSymbolTable
 70
     0
  0
ENDTAB
  0
TABLE
  2
UCS
  5
7
330
0
100
AcDbSymbolTable
 70
     0
  0
ENDTAB
  0
TABLE
  2
APPID
  5
9
330
0
100
AcDbSymbolTable
 70
    16
  0
APPID
  5
12
330
9
100
AcDbSymbolTableRecord
100
AcDbRegAppTableRecord
  2
ACAD
 70
     0
  0
APPID
  5
F4
330
9
100
AcDbSymbolTableRecord
100
AcDbRegAppTableRecord
  2
ACAD_PSEXT
 70
     0
  0
APPID
  5
1A9
330
9
100
AcDbSymbolTableRecord
100
AcDbRegAppTableRecord
  2
ACAD_NAV_VCDISPLAY
 70
     0
  0
APPID
  5
23F
330
9
100
AcDbSymbolTableRecord
100
AcDbRegAppTableRecord
  2
AcadAnnoPO
 70
     0
  0
APPID
  5
240
330
9
100
AcDbSymbolTableRecord
100
AcDbRegAppTableRecord
  2
AcadAnnotative
 70
     0
  0
APPID
  5
242
330
9
100
AcDbSymbolTableRecord
100
AcDbRegAppTableRecord
  2
ACAD_DSTYLE_DIMJAG
 70
     0
  0
APPID
  5
243
330
9
100
AcDbSymbolTableRecord
100
AcDbRegAppTableRecord
  2
ACAD_DSTYLE_DIMBREAK
 70
     0
  0
APPID
  5
244
330
9
100
AcDbSymbolTableRecord
100
AcDbRegAppTableRecord
  2
ACAD_DSTYLE_DIMTALN
 70
     0
  0
APPID
  5
270
330
9
100
AcDbSymbolTableRecord
100
AcDbRegAppTableRecord
  2
AcAecLayerStandard
 70
     0
  0
APPID
  5
271
330
9
100
AcDbSymbolTableRecord
100
AcDbRegAppTableRecord
  2
AcadStringInfo
 70
     0
  0
APPID
  5
33F
330
9
100
AcDbSymbolTableRecord
100
AcDbRegAppTableRecord
  2
ACAD_MLEADERVER
 70
     0
  0
APPID
  5
340
330
9
100
AcDbSymbolTableRecord
100
AcDbRegAppTableRecord
  2
AcCmTransparency
 70
     0
  0
APPID
  5
341
330
9
100
AcDbSymbolTableRecord
100
AcDbRegAppTableRecord
  2
GradientColor1ACI
 70
     0
  0
APPID
  5
342
330
9
100
AcDbSymbolTableRecord
100
AcDbRegAppTableRecord
  2
GradientColor2ACI
 70
     0
  0
APPID
  5
401
330
9
100
AcDbSymbolTableRecord
100
AcDbRegAppTableRecord
  2
ACAD_EXEMPT_FROM_CAD_STANDARDS
 70
     0
  0
APPID
  5
4C5
330
9
100
AcDbSymbolTableRecord
100
AcDbRegAppTableRecord
  2
ACAD_DSTYLE_DIMJOGGED_JOGANGLE_SYMBOL
 70
     0
  0
ENDTAB
  0
TABLE
  2
DIMSTYLE
  5
A
330
0
100
AcDbSymbolTable
 70
     7
100
AcDbDimStyleTable
 71
     3
340
4C4
340
9C
340
245
  0
DIMSTYLE
105
27
330
A
100
AcDbSymbolTableRecord
100
AcDbDimStyleTableRecord
  2
Standard
 70
     0
340
11
  0
DIMSTYLE
105
9C
330
A
100
AcDbSymbolTableRecord
100
AcDbDimStyleTableRecord
  2
ISO-25
 70
     0
 41
2.5
 42
0.625
 43
3.75
 44
1.25
 73
     0
 74
     0
 77
     1
 78
     8
140
2.5
141
2.5
143
0.03937007874016
147
0.625
171
     3
172
     1
271
     2
272
     2
274
     3
278
    44
283
     0
284
     8
340
11
  0
DIMSTYLE
105
245
330
A
100
AcDbSymbolTableRecord
100
AcDbDimStyleTableRecord
  2
Annotative
 70
     0
 41
2.5
 42
0.625
 43
3.75
 44
1.25
 73
     0
 74
     0
 77
     1
 78
     8
140
2.5
141
2.5
143
0.03937007874016
147
0.625
171
     3
172
     1
271
     2
272
     2
274
     3
278
    44
283
     0
284
     8
340
11
1001
ACAD_DSTYLE_DIMBREAK
1070
   391
1040
3.75
1001
AcadAnnotative
1000
AnnotativeData
1002
{
1070
     1
1070
     1
1002
}
1001
ACAD_DSTYLE_DIMJAG
1070
   388
1040
1.5
1001
ACAD_DSTYLE_DIMTALN
1070
   392
1070
     0
  0
DIMSTYLE
105
26E
330
A
100
AcDbSymbolTableRecord
100
AcDbDimStyleTableRecord
  2
mm+in
 70
     0
  3
mm
  4
"
 40
3.0
 41
3.5
 42
0.625
 43
3.75
 44
1.25
 69
     1
 73
     0
 77
     1
 78
     8
140
5.0
141
0.0
143
0.03937007874016
147
2.0
170
     1
171
     4
172
     1
176
     1
177
     1
178
     3
271
     1
272
     1
273
     7
274
     4
278
    44
283
     0
284
     8
340
23E
371
    -1
1001
ACAD_DSTYLE_DIMBREAK
1070
   391
1040
3.75
1001
ACAD_DSTYLE_DIMJAG
1070
   388
1040
1.5
1001
ACAD_DSTYLE_DIMTALN
1070
   392
1070
     0
1001
AcadAnnotative
1000
AnnotativeData
1002
{
1070
     1
1070
     0
1002
}
  0
DIMSTYLE
105
26F
330
A
100
AcDbSymbolTableRecord
100
AcDbDimStyleTableRecord
  2
7.2
 70
     0
 40
7.2
 41
1.199999999999999
 42
0.625
 43
3.75
 44
0.0
 73
     0
 74
     0
 77
     1
 78
     8
 79
     1
140
2.0
141
0.0
143
0.0394
147
0.625
176
     1
177
     1
178
     3
179
     1
271
     1
272
     1
273
     8
277
     6
284
     8
340
23E
371
    13
372
    13
1001
ACAD_DSTYLE_DIMBREAK
1070
   391
1040
3.75
1001
ACAD_DSTYLE_DIMJAG
1070
   388
1040
1.5
1001
ACAD_DSTYLE_DIMTALN
1070
   392
1070
     0
1001
AcadAnnotative
1000
AnnotativeData
1002
{
1070
     1
1070
     0
1002
}
  0
DIMSTYLE
105
33E
330
A
100
AcDbSymbolTableRecord
100
AcDbDimStyleTableRecord
  2
D mm 1.1
 70
     0
  4
"
 41
2.399999999999999
 42
0.625
 43
0.09
 44
1.199999999999999
 73
     0
 77
     1
 78
     8
140
20.0
141
0.0
143
0.03937007874016
147
2.0
171
     4
176
     1
177
     1
178
     3
271
     1
272
     1
273
     7
274
     4
278
    44
283
     0
284
     8
289
     1
340
33D
371
     9
1001
ACAD_DSTYLE_DIMBREAK
1070
   391
1040
3.75
1001
ACAD_DSTYLE_DIMJAG
1070
   388
1040
1.5
1001
ACAD_DSTYLE_DIMTALN
1070
   392
1070
     0
  0
DIMSTYLE
105
4C4
102
{ACAD_REACTORS
330
2E4
330
2E5
102
}
330
A
100
AcDbSymbolTableRecord
100
AcDbDimStyleTableRecord
  2
毫米英寸(目录图)
 70
     0
  3
mm
  4
"
 41
18.0
 42
20.0
 43
3.75
 44
5.0
 50
89.99999999999998
 73
     0
 74
     0
 77
     1
 78
     8
140
18.0
141
2.5
143
0.03937007874016
147
0.625
170
     1
171
     3
172
     1
176
     1
177
     1
178
     3
179
     1
271
     1
272
     2
273
     7
274
     3
283
     0
284
     8
340
33D
371
     9
372
     9
1001
ACAD_DSTYLE_DIMBREAK
1070
   391
1040
3.75
1001
ACAD_DSTYLE_DIMJAG
1070
   388
1040
1.5
1001
ACAD_DSTYLE_DIMTALN
1070
   392
1070
     0
1001
AcadStringInfo
1000
MIFCodePage
1070
     5
1001
AcadAnnotative
1000
AnnotativeData
1002
{
1070
     1
1070
     0
1002
}
1001
ACAD_DSTYLE_DIMJOGGED_JOGANGLE_SYMBOL
1070
   384
1040
1.570796326794896
  0
ENDTAB
  0
TABLE
  2
BLOCK_RECORD
  5
1
330
0
100
AcDbSymbolTable
 70
    21
  0
BLOCK_RECORD
  5
1F
330
1
100
AcDbSymbolTableRecord
100
AcDbBlockTableRecord
  2
*Model_Space
340
22
 70
     0
280
     1
281
     0
  0
BLOCK_RECORD
  5
1DF
330
1
100
AcDbSymbolTableRecord
100
AcDbBlockTableRecord
  2
*Paper_Space
340
1E0
 70
     0
280
     1
281
     0
  0
BLOCK_RECORD
  5
1E3
330
1
100
AcDbSymbolTableRecord
100
AcDbBlockTableRecord
  2
*Paper_Space0
340
1E4
 70
     0
280
     1
281
     0
  0
BLOCK_RECORD
  5
24F
330
1
100
AcDbSymbolTableRecord
100
AcDbBlockTableRecord
  2
*D1
340
0
 70
     0
280
     1
281
     0
  0
BLOCK_RECORD
  5
25B
330
1
100
AcDbSymbolTableRecord
100
AcDbBlockTableRecord
  2
*D2
340
0
 70
     0
280
     1
281
     0
  0
BLOCK_RECORD
  5
2EA
330
1
100
AcDbSymbolTableRecord
100
AcDbBlockTableRecord
  2
*D3
340
0
 70
     0
280
     1
281
     0
  0
BLOCK_RECORD
  5
2F6
330
1
100
AcDbSymbolTableRecord
100
AcDbBlockTableRecord
  2
*D4
340
0
 70
     0
280
     1
281
     0
  0
BLOCK_RECORD
  5
322
330
1
100
AcDbSymbolTableRecord
100
AcDbBlockTableRecord
  2
*D5
340
0
 70
     0
280
     1
281
     0
  0
BLOCK_RECORD
  5
32E
330
1
100
AcDbSymbolTableRecord
100
AcDbBlockTableRecord
  2
*D6
340
0
 70
     0
280
     1
281
     0
  0
BLOCK_RECORD
  5
393
330
1
100
AcDbSymbolTableRecord
100
AcDbBlockTableRecord
  2
*D7
340
0
 70
     0
280
     1
281
     0
  0
BLOCK_RECORD
  5
39F
330
1
100
AcDbSymbolTableRecord
100
AcDbBlockTableRecord
  2
*D8
340
0
 70
     0
280
     1
281
     0
  0
BLOCK_RECORD
  5
40C
330
1
100
AcDbSymbolTableRecord
100
AcDbBlockTableRecord
  2
*D9
340
0
 70
     0
280
     1
281
     0
  0
BLOCK_RECORD
  5
418
330
1
100
AcDbSymbolTableRecord
100
AcDbBlockTableRecord
  2
*D10
340
0
 70
     0
280
     1
281
     0
  0
BLOCK_RECORD
  5
482
330
1
100
AcDbSymbolTableRecord
100
AcDbBlockTableRecord
  2
*D11
340
0
 70
     0
280
     1
281
     0
  0
BLOCK_RECORD
  5
48E
330
1
100
AcDbSymbolTableRecord
100
AcDbBlockTableRecord
  2
*D12
340
0
 70
     0
280
     1
281
     0
  0
BLOCK_RECORD
  5
4AC
330
1
100
AcDbSymbolTableRecord
100
AcDbBlockTableRecord
  2
*D13
340
0
 70
     0
280
     1
281
     0
  0
BLOCK_RECORD
  5
4B8
330
1
100
AcDbSymbolTableRecord
100
AcDbBlockTableRecord
  2
*D14
340
0
 70
     0
280
     1
281
     0
  0
BLOCK_RECORD
  5
53C
330
1
100
AcDbSymbolTableRecord
100
AcDbBlockTableRecord
  2
*D15
340
0
 70
     0
280
     1
281
     0
  0
BLOCK_RECORD
  5
548
330
1
100
AcDbSymbolTableRecord
100
AcDbBlockTableRecord
  2
*D16
340
0
 70
     0
280
     1
281
     0
  0
BLOCK_RECORD
  5
554
330
1
100
AcDbSymbolTableRecord
100
AcDbBlockTableRecord
  2
*D17
340
0
 70
     0
280
     1
281
     0
  0
BLOCK_RECORD
  5
560
330
1
100
AcDbSymbolTableRecord
100
AcDbBlockTableRecord
  2
*D18
340
0
 70
     0
280
     1
281
     0
  0
BLOCK_RECORD
  5
5EA
330
1
100
AcDbSymbolTableRecord
100
AcDbBlockTableRecord
  2
*D19
340
0
 70
     0
280
     1
281
     0
  0
BLOCK_RECORD
  5
5F6
330
1
100
AcDbSymbolTableRecord
100
AcDbBlockTableRecord
  2
*D20
340
0
 70
     0
280
     1
281
     0
  0
ENDTAB
  0
ENDSEC
  0
SECTION
  2
BLOCKS
  0
BLOCK
  5
20
330
1F
100
AcDbEntity
  8
0
100
AcDbBlockBegin
  2
*Model_Space
 70
     0
 10
0.0
 20
0.0
 30
0.0
  3
*Model_Space
  1

  0
ENDBLK
  5
21
330
1F
100
AcDbEntity
  8
0
100
AcDbBlockEnd
  0
BLOCK
  5
1E1
330
1DF
100
AcDbEntity
 67
     1
  8
0
100
AcDbBlockBegin
  2
*Paper_Space
 70
     0
 10
0.0
 20
0.0
 30
0.0
  3
*Paper_Space
  1

  0
ENDBLK
  5
1E2
330
1DF
100
AcDbEntity
 67
     1
  8
0
100
AcDbBlockEnd
  0
BLOCK
  5
1E5
330
1E3
100
AcDbEntity
 67
     1
  8
0
100
AcDbBlockBegin
  2
*Paper_Space0
 70
     0
 10
0.0
 20
0.0
 30
0.0
  3
*Paper_Space0
  1

  0
ENDBLK
  5
1E6
330
1E3
100
AcDbEntity
 67
     1
  8
0
100
AcDbBlockEnd
  0
BLOCK
  5
250
330
24F
100
AcDbEntity
  8
0
100
AcDbBlockBegin
  2
*D1
 70
     1
 10
0.0
 20
0.0
 30
0.0
  3
*D1
  1

  0
LINE
  5
251
330
24F
100
AcDbEntity
  8
2
 62
     1
370
    -2
100
AcDbLine
 10
-105059.2947806569
 20
-279900.2653818714
 30
0.0
 11
-105059.2947806569
 21
-279804.3509199665
 31
0.0
  0
LINE
  5
252
330
24F
100
AcDbEntity
  8
2
 62
     1
370
    -2
100
AcDbLine
 10
-104237.0947806569
 20
-279896.1828041389
 30
0.0
 11
-104237.0947806569
 21
-279804.3509199665
 31
0.0
  0
LINE
  5
253
330
24F
100
AcDbEntity
  8
2
 62
     1
100
AcDbLine
 10
-105048.7947806569
 20
-279808.1009199666
 30
0.0
 11
-104247.5947806569
 21
-279808.1009199666
 31
0.0
  0
SOLID
  5
254
330
24F
100
AcDbEntity
  8
2
 62
     1
100
AcDbTrace
 10
-105048.7947806569
 20
-279806.3509199665
 30
0.0
 11
-105048.7947806569
 21
-279809.8509199665
 31
0.0
 12
-105059.2947806569
 22
-279808.1009199666
 32
0.0
 13
-105059.2947806569
 23
-279808.1009199666
 33
0.0
  0
SOLID
  5
255
330
24F
100
AcDbEntity
  8
2
 62
     1
100
AcDbTrace
 10
-104247.5947806569
 20
-279809.8509199665
 30
0.0
 11
-104247.5947806569
 21
-279806.3509199665
 31
0.0
 12
-104237.0947806569
 22
-279808.1009199666
 32
0.0
 13
-104237.0947806569
 23
-279808.1009199666
 33
0.0
  0
MTEXT
  5
256
330
24F
100
AcDbEntity
  8
2
 62
     3
100
AcDbMText
 10
-104648.1947806569
 20
-279792.3908244686
 30
0.0
 40
15.0
 41
0.0
 46
0.0
 71
     5
 72
     1
  1
822,2mm [32 3/8"]
  7
Annotative
 73
     1
 44
1.0
 90
        3
 63
   257
 45
1.1
441
        0
1001
ACAD
1000
MTEXTBEGIN
1070
    73
1070
     1
1070
    44
1040
1.0
1070
    74
1070
     0
1000
MTEXTEND
  0
POINT
  5
257
330
24F
100
AcDbEntity
  8
Defpoints
 62
     0
100
AcDbPoint
 10
-105059.2947806569
 20
-279902.1403818713
 30
0.0
  0
POINT
  5
258
330
24F
100
AcDbEntity
  8
Defpoints
 62
     0
100
AcDbPoint
 10
-104237.0947806569
 20
-279898.0578041387
 30
0.0
  0
POINT
  5
259
330
24F
100
AcDbEntity
  8
Defpoints
 62
     0
100
AcDbPoint
 10
-104237.0947806569
 20
-279808.1009199666
 30
0.0
  0
ENDBLK
  5
25A
330
24F
100
AcDbEntity
  8
0
100
AcDbBlockEnd
  0
BLOCK
  5
25C
330
25B
100
AcDbEntity
  8
0
100
AcDbBlockBegin
  2
*D2
 70
     1
 10
0.0
 20
0.0
 30
0.0
  3
*D2
  1

  0
LINE
  5
25D
330
25B
100
AcDbEntity
  8
2
 62
     1
370
    -2
100
AcDbLine
 10
-105033.6673761205
 20
-279867.5863577603
 30
0.0
 11
-105196.6298188414
 21
-279867.5863577603
 31
0.0
  0
LINE
  5
25E
330
25B
100
AcDbEntity
  8
2
 62
     1
370
    -2
100
AcDbLine
 10
-105023.1887793446
 20
-280410.3863577603
 30
0.0
 11
-105196.6298188414
 21
-280410.3863577603
 31
0.0
  0
LINE
  5
25F
330
25B
100
AcDbEntity
  8
2
 62
     1
100
AcDbLine
 10
-105192.8798188414
 20
-279878.0863577603
 30
0.0
 11
-105192.8798188414
 21
-280399.8863577602
 31
0.0
  0
SOLID
  5
260
330
25B
100
AcDbEntity
  8
2
 62
     1
100
AcDbTrace
 10
-105191.1298188414
 20
-279878.0863577603
 30
0.0
 11
-105194.6298188414
 21
-279878.0863577603
 31
0.0
 12
-105192.8798188414
 22
-279867.5863577603
 32
0.0
 13
-105192.8798188414
 23
-279867.5863577603
 33
0.0
  0
SOLID
  5
261
330
25B
100
AcDbEntity
  8
2
 62
     1
100
AcDbTrace
 10
-105194.6298188414
 20
-280399.8863577602
 30
0.0
 11
-105191.1298188414
 21
-280399.8863577602
 31
0.0
 12
-105192.8798188414
 22
-280410.3863577603
 32
0.0
 13
-105192.8798188414
 23
-280410.3863577603
 33
0.0
  0
MTEXT
  5
262
330
25B
100
AcDbEntity
  8
2
 62
     3
100
AcDbMText
 10
-105208.5899143394
 20
-280138.9863577604
 30
0.0
 40
15.0
 41
0.0
 46
0.0
 71
     5
 72
     1
  1
542,8mm [21 3/8"]
  7
Annotative
 11
0.0
 21
1.0
 31
0.0
 73
     1
 44
1.0
 90
        3
 63
   257
 45
1.1
441
        0
1001
ACAD
1000
MTEXTBEGIN
1070
    73
1070
     1
1070
    44
1040
1.0
1070
    74
1070
     0
1000
MTEXTEND
  0
POINT
  5
263
330
25B
100
AcDbEntity
  8
Defpoints
 62
     0
100
AcDbPoint
 10
-105031.7923761205
 20
-279867.5863577603
 30
0.0
  0
POINT
  5
264
330
25B
100
AcDbEntity
  8
Defpoints
 62
     0
100
AcDbPoint
 10
-105021.3137793446
 20
-280410.3863577603
 30
0.0
  0
POINT
  5
265
330
25B
100
AcDbEntity
  8
Defpoints
 62
     0
100
AcDbPoint
 10
-105192.8798188414
 20
-280410.3863577603
 30
0.0
  0
ENDBLK
  5
266
330
25B
100
AcDbEntity
  8
0
100
AcDbBlockEnd
  0
BLOCK
  5
2EB
330
2EA
100
AcDbEntity
  8
0
100
AcDbBlockBegin
  2
*D3
 70
     1
 10
0.0
 20
0.0
 30
0.0
  3
*D3
  1

  0
LINE
  5
626
330
2EA
100
AcDbEntity
  8
0
 62
     1
440
 16777216
370
     9
100
AcDbLine
 10
637.3584259834606
 20
1222.950308590911
 30
0.0
 11
637.3584259834606
 21
1301.989770495697
 31
0.0
  0
LINE
  5
627
330
2EA
100
AcDbEntity
  8
0
 62
     1
440
 16777216
370
     9
100
AcDbLine
 10
1459.558425983443
 20
1227.032886323476
 30
0.0
 11
1459.558425983443
 21
1301.989770495697
 31
0.0
  0
LINE
  5
628
330
2EA
100
AcDbEntity
  8
0
 62
     1
440
 16777216
370
     9
100
AcDbLine
 10
655.3584259834606
 20
1296.989770495698
 30
0.0
 11
1441.558425983443
 21
1296.989770495698
 31
0.0
  0
SOLID
  5
629
330
2EA
100
AcDbEntity
  8
0
 62
     1
440
 16777216
100
AcDbTrace
 10
655.3584259834606
 20
1299.989770495697
 30
0.0
 11
655.3584259834606
 21
1293.989770495697
 31
0.0
 12
637.3584259834606
 22
1296.989770495698
 32
0.0
 13
637.3584259834606
 23
1296.989770495698
 33
0.0
  0
SOLID
  5
62A
330
2EA
100
AcDbEntity
  8
0
 62
     1
440
 16777216
100
AcDbTrace
 10
1441.558425983443
 20
1299.989770495697
 30
0.0
 11
1441.558425983443
 21
1293.989770495697
 31
0.0
 12
1459.558425983443
 22
1296.989770495698
 32
0.0
 13
1459.558425983443
 23
1296.989770495698
 33
0.0
  0
MTEXT
  5
62B
330
2EA
100
AcDbEntity
  8
0
 62
     3
440
 16777216
100
AcDbMText
 10
1048.458425983452
 20
1310.561564492969
 30
0.0
 40
20.0
 41
0.0
 46
0.0
 71
     5
 72
     1
  1
822.2mm [32 3/8"]
  7
Arial
 73
     1
 44
1.0
  0
POINT
  5
62C
330
2EA
100
AcDbEntity
  8
Defpoints
 62
     0
440
 16777216
100
AcDbPoint
 10
637.3584259834606
 20
1202.950308590911
 30
0.0
  0
POINT
  5
62D
330
2EA
100
AcDbEntity
  8
Defpoints
 62
     0
440
 16777216
100
AcDbPoint
 10
1459.558425983443
 20
1207.032886323476
 30
0.0
  0
POINT
  5
62E
330
2EA
100
AcDbEntity
  8
Defpoints
 62
     0
440
 16777216
100
AcDbPoint
 10
1459.558425983443
 20
1296.989770495698
 30
0.0
  0
ENDBLK
  5
2EC
330
2EA
100
AcDbEntity
  8
0
100
AcDbBlockEnd
  0
BLOCK
  5
2F7
330
2F6
100
AcDbEntity
  8
0
100
AcDbBlockBegin
  2
*D4
 70
     1
 10
0.0
 20
0.0
 30
0.0
  3
*D4
  1

  0
LINE
  5
638
330
2F6
100
AcDbEntity
  8
0
 62
     1
440
 16777216
370
     9
100
AcDbLine
 10
605.2947705775043
 20
1193.564003639664
 30
0.0
 11
523.0659436259449
 21
1193.564003639664
 31
0.0
  0
LINE
  5
639
330
2F6
100
AcDbEntity
  8
0
 62
     1
440
 16777216
370
     9
100
AcDbLine
 10
615.7733673534713
 20
650.7640036396759
 30
0.0
 11
523.065943625945
 21
650.7640036396759
 31
0.0
  0
LINE
  5
63A
330
2F6
100
AcDbEntity
  8
0
 62
     1
440
 16777216
370
     9
100
AcDbLine
 10
528.0659436259449
 20
1175.564003639664
 30
0.0
 11
528.0659436259449
 21
668.7640036396759
 31
0.0
  0
SOLID
  5
63B
330
2F6
100
AcDbEntity
  8
0
 62
     1
440
 16777216
100
AcDbTrace
 10
525.0659436259447
 20
1175.564003639664
 30
0.0
 11
531.0659436259449
 21
1175.564003639664
 31
0.0
 12
528.0659436259449
 22
1193.564003639664
 32
0.0
 13
528.0659436259449
 23
1193.564003639664
 33
0.0
  0
SOLID
  5
63C
330
2F6
100
AcDbEntity
  8
0
 62
     1
440
 16777216
100
AcDbTrace
 10
525.065943625945
 20
668.7640036396759
 30
0.0
 11
531.065943625945
 21
668.7640036396759
 31
0.0
 12
528.0659436259449
 22
650.7640036396759
 32
0.0
 13
528.0659436259449
 23
650.7640036396759
 33
0.0
  0
MTEXT
  5
63D
330
2F6
100
AcDbEntity
  8
0
 62
     3
440
 16777216
100
AcDbMText
 10
514.4941496286734
 20
922.1640036396696
 30
0.0
 40
20.0
 41
0.0
 46
0.0
 71
     5
 72
     1
  1
542.8mm [21 3/8"]
  7
Arial
 11
0.0000000000000001
 21
1.0
 31
0.0
 73
     1
 44
1.0
  0
POINT
  5
63E
330
2F6
100
AcDbEntity
  8
Defpoints
 62
     0
440
 16777216
100
AcDbPoint
 10
625.2947705775043
 20
1193.564003639664
 30
0.0
  0
POINT
  5
63F
330
2F6
100
AcDbEntity
  8
Defpoints
 62
     0
440
 16777216
100
AcDbPoint
 10
635.7733673534713
 20
650.7640036396759
 30
0.0
  0
POINT
  5
640
330
2F6
100
AcDbEntity
  8
Defpoints
 62
     0
440
 16777216
100
AcDbPoint
 10
528.0659436259449
 20
650.7640036396759
 30
0.0
  0
ENDBLK
  5
2F8
330
2F6
100
AcDbEntity
  8
0
100
AcDbBlockEnd
  0
BLOCK
  5
323
330
322
100
AcDbEntity
  8
0
100
AcDbBlockBegin
  2
*D5
 70
     1
 10
0.0
 20
0.0
 30
0.0
  3
*D5
  1

  0
LINE
  5
324
330
322
100
AcDbEntity
  8
0
 62
     1
440
 16777216
370
    -2
100
AcDbLine
 10
2649.301715458992
 20
1498.846723517036
 30
0.0
 11
2649.301715458992
 21
1569.952477571031
 31
0.0
  0
LINE
  5
325
330
322
100
AcDbEntity
  8
0
 62
     1
440
 16777216
370
    -2
100
AcDbLine
 10
3344.501715459004
 20
1498.846723517036
 30
0.0
 11
3344.501715459004
 21
1569.952477571031
 31
0.0
  0
LINE
  5
326
330
322
100
AcDbEntity
  8
0
 62
     1
440
 16777216
370
     9
100
AcDbLine
 10
2651.701715458993
 20
1568.752477571031
 30
0.0
 11
3342.101715459004
 21
1568.752477571031
 31
0.0
  0
SOLID
  5
327
330
322
100
AcDbEntity
  8
0
 62
     1
440
 16777216
100
AcDbTrace
 10
2651.701715458993
 20
1569.152477571031
 30
0.0
 11
2651.701715458993
 21
1568.352477571031
 31
0.0
 12
2649.301715458992
 22
1568.752477571031
 32
0.0
 13
2649.301715458992
 23
1568.752477571031
 33
0.0
  0
SOLID
  5
328
330
322
100
AcDbEntity
  8
0
 62
     1
440
 16777216
100
AcDbTrace
 10
3342.101715459004
 20
1569.152477571031
 30
0.0
 11
3342.101715459004
 21
1568.352477571031
 31
0.0
 12
3344.501715459004
 22
1568.752477571031
 32
0.0
 13
3344.501715459004
 23
1568.752477571031
 33
0.0
  0
MTEXT
  5
329
330
322
100
AcDbEntity
  8
0
 62
     3
440
 16777216
100
AcDbMText
 10
2996.901715458998
 20
1580.963937325465
 30
0.0
 40
20.0
 41
0.0
 46
0.0
 71
     5
 72
     1
  1
695.2 mm
  7
Arial
 73
     1
 44
1.0
  0
POINT
  5
32A
330
322
100
AcDbEntity
  8
Defpoints
 62
     0
440
 16777216
100
AcDbPoint
 10
2649.301715458992
 20
1498.221723517036
 30
0.0
  0
POINT
  5
32B
330
322
100
AcDbEntity
  8
Defpoints
 62
     0
440
 16777216
100
AcDbPoint
 10
3344.501715459004
 20
1498.221723517036
 30
0.0
  0
POINT
  5
32C
330
322
100
AcDbEntity
  8
Defpoints
 62
     0
440
 16777216
100
AcDbPoint
 10
3344.501715459004
 20
1568.752477571031
 30
0.0
  0
ENDBLK
  5
32D
330
322
100
AcDbEntity
  8
0
100
AcDbBlockEnd
  0
BLOCK
  5
32F
330
32E
100
AcDbEntity
  8
0
100
AcDbBlockBegin
  2
*D6
 70
     1
 10
0.0
 20
0.0
 30
0.0
  3
*D6
  1

  0
LINE
  5
330
330
32E
100
AcDbEntity
  8
0
 62
     1
440
 16777216
370
    -2
100
AcDbLine
 10
2626.417162611851
 20
1479.155336894458
 30
0.0
 11
2555.43131857399
 21
1479.155336894458
 31
0.0
  0
LINE
  5
331
330
32E
100
AcDbEntity
  8
0
 62
     1
440
 16777216
370
    -2
100
AcDbLine
 10
2626.417162611851
 20
936.3553368944414
 30
0.0
 11
2555.431318573991
 21
936.3553368944414
 31
0.0
  0
LINE
  5
332
330
32E
100
AcDbEntity
  8
0
 62
     1
440
 16777216
370
     9
100
AcDbLine
 10
2556.63131857399
 20
1476.755336894458
 30
0.0
 11
2556.63131857399
 21
938.7553368944413
 31
0.0
  0
SOLID
  5
333
330
32E
100
AcDbEntity
  8
0
 62
     1
440
 16777216
100
AcDbTrace
 10
2556.23131857399
 20
1476.755336894458
 30
0.0
 11
2557.03131857399
 21
1476.755336894458
 31
0.0
 12
2556.63131857399
 22
1479.155336894458
 32
0.0
 13
2556.63131857399
 23
1479.155336894458
 33
0.0
  0
SOLID
  5
334
330
32E
100
AcDbEntity
  8
0
 62
     1
440
 16777216
100
AcDbTrace
 10
2556.23131857399
 20
938.7553368944413
 30
0.0
 11
2557.031318573991
 21
938.7553368944413
 31
0.0
 12
2556.63131857399
 22
936.3553368944414
 32
0.0
 13
2556.63131857399
 23
936.3553368944414
 33
0.0
  0
MTEXT
  5
335
330
32E
100
AcDbEntity
  8
0
 62
     3
440
 16777216
370
    18
100
AcDbMText
 10
2544.419858819556
 20
1207.755336894449
 30
0.0
 40
20.0
 41
0.0
 46
0.0
 71
     5
 72
     1
  1
542.8 mm
  7
Arial
 11
0.0000000000000001
 21
1.0
 31
0.0
 73
     1
 44
1.0
  0
POINT
  5
336
330
32E
100
AcDbEntity
  8
Defpoints
 62
     0
440
 16777216
100
AcDbPoint
 10
2627.042162611852
 20
1479.155336894458
 30
0.0
  0
POINT
  5
337
330
32E
100
AcDbEntity
  8
Defpoints
 62
     0
440
 16777216
100
AcDbPoint
 10
2627.042162611852
 20
936.3553368944414
 30
0.0
  0
POINT
  5
338
330
32E
100
AcDbEntity
  8
Defpoints
 62
     0
440
 16777216
100
AcDbPoint
 10
2556.63131857399
 20
936.3553368944414
 30
0.0
  0
ENDBLK
  5
339
330
32E
100
AcDbEntity
  8
0
100
AcDbBlockEnd
  0
BLOCK
  5
394
330
393
100
AcDbEntity
  8
0
100
AcDbBlockBegin
  2
*D7
 70
     1
 10
0.0
 20
0.0
 30
0.0
  3
*D7
  1

  0
LINE
  5
3AB
330
393
100
AcDbEntity
  8
0
 62
     1
440
 16777216
370
    -2
100
AcDbLine
 10
2558.585158021455
 20
1108.022252418051
 30
0.0
 11
2558.585158021455
 21
1179.128006472046
 31
0.0
  0
LINE
  5
3AC
330
393
100
AcDbEntity
  8
0
 62
     1
440
 16777216
370
    -2
100
AcDbLine
 10
3253.785158021468
 20
1108.022252418051
 30
0.0
 11
3253.785158021468
 21
1179.128006472046
 31
0.0
  0
LINE
  5
3AD
330
393
100
AcDbEntity
  8
0
 62
     1
440
 16777216
370
     9
100
AcDbLine
 10
2560.985158021455
 20
1177.928006472046
 30
0.0
 11
3251.385158021466
 21
1177.928006472046
 31
0.0
  0
SOLID
  5
3AE
330
393
100
AcDbEntity
  8
0
 62
     1
440
 16777216
100
AcDbTrace
 10
2560.985158021455
 20
1178.328006472046
 30
0.0
 11
2560.985158021455
 21
1177.528006472046
 31
0.0
 12
2558.585158021455
 22
1177.928006472046
 32
0.0
 13
2558.585158021455
 23
1177.928006472046
 33
0.0
  0
SOLID
  5
3AF
330
393
100
AcDbEntity
  8
0
 62
     1
440
 16777216
100
AcDbTrace
 10
3251.385158021466
 20
1178.328006472046
 30
0.0
 11
3251.385158021466
 21
1177.528006472046
 31
0.0
 12
3253.785158021468
 22
1177.928006472046
 32
0.0
 13
3253.785158021468
 23
1177.928006472046
 33
0.0
  0
MTEXT
  5
3B0
330
393
100
AcDbEntity
  8
0
 62
     3
440
 16777216
100
AcDbMText
 10
2906.185158021461
 20
1190.13946622648
 30
0.0
 40
20.0
 41
0.0
 46
0.0
 71
     5
 72
     1
  1
695.2 mm
  7
Arial
 73
     1
 44
1.0
  0
POINT
  5
3B1
330
393
100
AcDbEntity
  8
Defpoints
 62
     0
440
 16777216
100
AcDbPoint
 10
2558.585158021455
 20
1107.397252418051
 30
0.0
  0
POINT
  5
3B2
330
393
100
AcDbEntity
  8
Defpoints
 62
     0
440
 16777216
100
AcDbPoint
 10
3253.785158021468
 20
1107.397252418051
 30
0.0
  0
POINT
  5
3B3
330
393
100
AcDbEntity
  8
Defpoints
 62
     0
440
 16777216
100
AcDbPoint
 10
3253.785158021468
 20
1177.928006472046
 30
0.0
  0
ENDBLK
  5
395
330
393
100
AcDbEntity
  8
0
100
AcDbBlockEnd
  0
BLOCK
  5
3A0
330
39F
100
AcDbEntity
  8
0
100
AcDbBlockBegin
  2
*D8
 70
     1
 10
0.0
 20
0.0
 30
0.0
  3
*D8
  1

  0
LINE
  5
3B4
330
39F
100
AcDbEntity
  8
0
 62
     1
440
 16777216
370
    -2
100
AcDbLine
 10
2535.700605174314
 20
1088.330865795473
 30
0.0
 11
2464.714761136454
 21
1088.330865795473
 31
0.0
  0
LINE
  5
3B5
330
39F
100
AcDbEntity
  8
0
 62
     1
440
 16777216
370
    -2
100
AcDbLine
 10
2535.700605174314
 20
545.5308657954557
 30
0.0
 11
2464.714761136454
 21
545.5308657954557
 31
0.0
  0
LINE
  5
3B6
330
39F
100
AcDbEntity
  8
0
 62
     1
440
 16777216
370
     9
100
AcDbLine
 10
2465.914761136454
 20
1085.930865795473
 30
0.0
 11
2465.914761136454
 21
547.9308657954558
 31
0.0
  0
SOLID
  5
3B7
330
39F
100
AcDbEntity
  8
0
 62
     1
440
 16777216
100
AcDbTrace
 10
2465.514761136454
 20
1085.930865795473
 30
0.0
 11
2466.314761136454
 21
1085.930865795473
 31
0.0
 12
2465.914761136454
 22
1088.330865795473
 32
0.0
 13
2465.914761136454
 23
1088.330865795473
 33
0.0
  0
SOLID
  5
3B8
330
39F
100
AcDbEntity
  8
0
 62
     1
440
 16777216
100
AcDbTrace
 10
2465.514761136454
 20
547.9308657954558
 30
0.0
 11
2466.314761136454
 21
547.9308657954558
 31
0.0
 12
2465.914761136454
 22
545.5308657954557
 32
0.0
 13
2465.914761136454
 23
545.5308657954557
 33
0.0
  0
MTEXT
  5
3B9
330
39F
100
AcDbEntity
  8
0
 62
     3
440
 16777216
370
    18
100
AcDbMText
 10
2453.703301382021
 20
816.9308657954637
 30
0.0
 40
20.0
 41
0.0
 46
0.0
 71
     5
 72
     1
  1
542.8 mm
  7
Arial
 11
0.0000000000000001
 21
1.0
 31
0.0
 73
     1
 44
1.0
  0
POINT
  5
3BA
330
39F
100
AcDbEntity
  8
Defpoints
 62
     0
440
 16777216
100
AcDbPoint
 10
2536.325605174314
 20
1088.330865795473
 30
0.0
  0
POINT
  5
3BB
330
39F
100
AcDbEntity
  8
Defpoints
 62
     0
440
 16777216
100
AcDbPoint
 10
2536.325605174314
 20
545.5308657954557
 30
0.0
  0
POINT
  5
3BC
330
39F
100
AcDbEntity
  8
Defpoints
 62
     0
440
 16777216
100
AcDbPoint
 10
2465.914761136454
 20
545.5308657954557
 30
0.0
  0
ENDBLK
  5
3A1
330
39F
100
AcDbEntity
  8
0
100
AcDbBlockEnd
  0
BLOCK
  5
40D
330
40C
100
AcDbEntity
  8
0
100
AcDbBlockBegin
  2
*D9
 70
     1
 10
0.0
 20
0.0
 30
0.0
  3
*D9
  1

  0
LINE
  5
40E
330
40C
100
AcDbEntity
  8
2
 62
     1
440
 16777216
370
    -2
100
AcDbLine
 10
936.7511961705003
 20
1216.864019554964
 30
0.0
 11
936.7511961705003
 21
1324.962329195969
 31
0.0
  0
LINE
  5
40F
330
40C
100
AcDbEntity
  8
2
 62
     1
440
 16777216
370
    -2
100
AcDbLine
 10
1555.751196170471
 20
1224.249974921386
 30
0.0
 11
1555.751196170471
 21
1324.962329195969
 31
0.0
  0
LINE
  5
410
330
40C
100
AcDbEntity
  8
2
 62
     1
440
 16777216
100
AcDbLine
 10
947.2511961705002
 20
1321.212329195969
 30
0.0
 11
1545.251196170471
 21
1321.212329195969
 31
0.0
  0
SOLID
  5
411
330
40C
100
AcDbEntity
  8
2
 62
     1
440
 16777216
100
AcDbTrace
 10
947.2511961705002
 20
1322.962329195969
 30
0.0
 11
947.2511961705002
 21
1319.462329195969
 31
0.0
 12
936.7511961705003
 22
1321.212329195969
 32
0.0
 13
936.7511961705003
 23
1321.212329195969
 33
0.0
  0
SOLID
  5
412
330
40C
100
AcDbEntity
  8
2
 62
     1
440
 16777216
100
AcDbTrace
 10
1545.251196170471
 20
1322.962329195969
 30
0.0
 11
1545.251196170471
 21
1319.462329195969
 31
0.0
 12
1555.751196170471
 22
1321.212329195969
 32
0.0
 13
1555.751196170471
 23
1321.212329195969
 33
0.0
  0
MTEXT
  5
413
330
40C
100
AcDbEntity
  8
2
 62
     3
440
 16777216
100
AcDbMText
 10
1246.251196170486
 20
1336.922424693923
 30
0.0
 40
15.0
 41
0.0
 46
0.0
 71
     5
 72
     1
  1
619mm [24 3/8"]
  7
Annotative
 73
     1
 44
1.0
 90
        3
 63
     9
421
 13158600
 45
1.1
441
        0
  0
POINT
  5
414
330
40C
100
AcDbEntity
  8
Defpoints
 62
     0
440
 16777216
100
AcDbPoint
 10
936.7511961705003
 20
1214.989019554964
 30
0.0
  0
POINT
  5
415
330
40C
100
AcDbEntity
  8
Defpoints
 62
     0
440
 16777216
100
AcDbPoint
 10
1555.751196170471
 20
1222.374974921386
 30
0.0
  0
POINT
  5
416
330
40C
100
AcDbEntity
  8
Defpoints
 62
     0
440
 16777216
100
AcDbPoint
 10
1555.751196170471
 20
1321.212329195969
 30
0.0
  0
ENDBLK
  5
417
330
40C
100
AcDbEntity
  8
0
100
AcDbBlockEnd
  0
BLOCK
  5
419
330
418
100
AcDbEntity
  8
0
100
AcDbBlockBegin
  2
*D10
 70
     1
 10
0.0
 20
0.0
 30
0.0
  3
*D10
  1

  0
LINE
  5
41A
330
418
100
AcDbEntity
  8
2
 62
     1
440
 16777216
370
    -2
100
AcDbLine
 10
916.9698598237033
 20
1199.281147344711
 30
0.0
 11
815.4313000431315
 21
1199.281147344711
 31
0.0
  0
LINE
  5
41B
330
418
100
AcDbEntity
  8
2
 62
     1
440
 16777216
370
    -2
100
AcDbLine
 10
907.1468582303372
 20
656.4811473447812
 30
0.0
 11
815.4313000431315
 21
656.4811473447812
 31
0.0
  0
LINE
  5
41C
330
418
100
AcDbEntity
  8
2
 62
     1
440
 16777216
100
AcDbLine
 10
819.1813000431316
 20
1188.781147344711
 30
0.0
 11
819.1813000431316
 21
666.9811473447812
 31
0.0
  0
SOLID
  5
41D
330
418
100
AcDbEntity
  8
2
 62
     1
440
 16777216
100
AcDbTrace
 10
817.4313000431316
 20
1188.781147344711
 30
0.0
 11
820.9313000431317
 21
1188.781147344711
 31
0.0
 12
819.1813000431316
 22
1199.281147344711
 32
0.0
 13
819.1813000431316
 23
1199.281147344711
 33
0.0
  0
SOLID
  5
41E
330
418
100
AcDbEntity
  8
2
 62
     1
440
 16777216
100
AcDbTrace
 10
817.4313000431316
 20
666.9811473447812
 30
0.0
 11
820.9313000431317
 21
666.9811473447812
 31
0.0
 12
819.1813000431316
 22
656.4811473447812
 32
0.0
 13
819.1813000431316
 23
656.4811473447812
 33
0.0
  0
MTEXT
  5
41F
330
418
100
AcDbEntity
  8
2
 62
     3
440
 16777216
100
AcDbMText
 10
803.4712045451779
 20
927.8811473447458
 30
0.0
 40
15.0
 41
0.0
 46
0.0
 71
     5
 72
     1
  1
542.8mm [21 3/8"]
  7
Annotative
 11
0.0000000000000001
 21
1.0
 31
0.0
 73
     1
 44
1.0
 90
        3
 63
     9
421
 13158600
 45
1.1
441
        0
  0
POINT
  5
420
330
418
100
AcDbEntity
  8
Defpoints
 62
     0
440
 16777216
100
AcDbPoint
 10
918.8448598237034
 20
1199.281147344711
 30
0.0
  0
POINT
  5
421
330
418
100
AcDbEntity
  8
Defpoints
 62
     0
440
 16777216
100
AcDbPoint
 10
909.0218582303371
 20
656.4811473447812
 30
0.0
  0
POINT
  5
422
330
418
100
AcDbEntity
  8
Defpoints
 62
     0
440
 16777216
100
AcDbPoint
 10
819.1813000431316
 20
656.4811473447812
 30
0.0
  0
ENDBLK
  5
423
330
418
100
AcDbEntity
  8
0
100
AcDbBlockEnd
  0
BLOCK
  5
483
330
482
100
AcDbEntity
  8
0
100
AcDbBlockBegin
  2
*D11
 70
     1
 10
0.0
 20
0.0
 30
0.0
  3
*D11
  1

  0
LINE
  5
49A
330
482
100
AcDbEntity
  8
2
 62
     1
440
 16777216
370
    -2
100
AcDbLine
 10
1922.736957749153
 20
1262.575683290325
 30
0.0
 11
1922.736957749153
 21
1370.67399293133
 31
0.0
  0
LINE
  5
49B
330
482
100
AcDbEntity
  8
2
 62
     1
440
 16777216
370
    -2
100
AcDbLine
 10
2541.736957749124
 20
1269.961638656748
 30
0.0
 11
2541.736957749124
 21
1370.67399293133
 31
0.0
  0
LINE
  5
49C
330
482
100
AcDbEntity
  8
2
 62
     1
440
 16777216
100
AcDbLine
 10
1933.236957749153
 20
1366.92399293133
 30
0.0
 11
2531.236957749124
 21
1366.92399293133
 31
0.0
  0
SOLID
  5
49D
330
482
100
AcDbEntity
  8
2
 62
     1
440
 16777216
100
AcDbTrace
 10
1933.236957749153
 20
1368.67399293133
 30
0.0
 11
1933.236957749153
 21
1365.17399293133
 31
0.0
 12
1922.736957749153
 22
1366.92399293133
 32
0.0
 13
1922.736957749153
 23
1366.92399293133
 33
0.0
  0
SOLID
  5
49E
330
482
100
AcDbEntity
  8
2
 62
     1
440
 16777216
100
AcDbTrace
 10
2531.236957749124
 20
1368.67399293133
 30
0.0
 11
2531.236957749124
 21
1365.17399293133
 31
0.0
 12
2541.736957749124
 22
1366.92399293133
 32
0.0
 13
2541.736957749124
 23
1366.92399293133
 33
0.0
  0
MTEXT
  5
49F
330
482
100
AcDbEntity
  8
2
 62
     3
440
 16777216
100
AcDbMText
 10
2232.236957749138
 20
1382.634088429284
 30
0.0
 40
15.0
 41
0.0
 46
0.0
 71
     5
 72
     1
  1
619mm [24 3/8"]
  7
Annotative
 73
     1
 44
1.0
 90
        3
 63
     9
421
 13158600
 45
1.1
441
        0
  0
POINT
  5
4A0
330
482
100
AcDbEntity
  8
Defpoints
 62
     0
440
 16777216
100
AcDbPoint
 10
1922.736957749153
 20
1260.700683290325
 30
0.0
  0
POINT
  5
4A1
330
482
100
AcDbEntity
  8
Defpoints
 62
     0
440
 16777216
100
AcDbPoint
 10
2541.736957749124
 20
1268.086638656747
 30
0.0
  0
POINT
  5
4A2
330
482
100
AcDbEntity
  8
Defpoints
 62
     0
440
 16777216
100
AcDbPoint
 10
2541.736957749124
 20
1366.92399293133
 30
0.0
  0
ENDBLK
  5
484
330
482
100
AcDbEntity
  8
0
100
AcDbBlockEnd
  0
BLOCK
  5
48F
330
48E
100
AcDbEntity
  8
0
100
AcDbBlockBegin
  2
*D12
 70
     1
 10
0.0
 20
0.0
 30
0.0
  3
*D12
  1

  0
LINE
  5
4A3
330
48E
100
AcDbEntity
  8
2
 62
     1
440
 16777216
370
    -2
100
AcDbLine
 10
1902.955621402356
 20
1244.992811080072
 30
0.0
 11
1801.417061621785
 21
1244.992811080072
 31
0.0
  0
LINE
  5
4A4
330
48E
100
AcDbEntity
  8
2
 62
     1
440
 16777216
370
    -2
100
AcDbLine
 10
1893.13261980899
 20
702.1928110801422
 30
0.0
 11
1801.417061621785
 21
702.1928110801422
 31
0.0
  0
LINE
  5
4A5
330
48E
100
AcDbEntity
  8
2
 62
     1
440
 16777216
100
AcDbLine
 10
1805.167061621785
 20
1234.492811080072
 30
0.0
 11
1805.167061621785
 21
712.6928110801424
 31
0.0
  0
SOLID
  5
4A6
330
48E
100
AcDbEntity
  8
2
 62
     1
440
 16777216
100
AcDbTrace
 10
1803.417061621785
 20
1234.492811080072
 30
0.0
 11
1806.917061621785
 21
1234.492811080072
 31
0.0
 12
1805.167061621785
 22
1244.992811080072
 32
0.0
 13
1805.167061621785
 23
1244.992811080072
 33
0.0
  0
SOLID
  5
4A7
330
48E
100
AcDbEntity
  8
2
 62
     1
440
 16777216
100
AcDbTrace
 10
1803.417061621785
 20
712.6928110801424
 30
0.0
 11
1806.917061621785
 21
712.6928110801424
 31
0.0
 12
1805.167061621785
 22
702.1928110801422
 32
0.0
 13
1805.167061621785
 23
702.1928110801422
 33
0.0
  0
MTEXT
  5
4A8
330
48E
100
AcDbEntity
  8
2
 62
     3
440
 16777216
100
AcDbMText
 10
1789.456966123831
 20
973.5928110801067
 30
0.0
 40
15.0
 41
0.0
 46
0.0
 71
     5
 72
     1
  1
542.8mm [21 3/8"]
  7
Annotative
 11
0.0000000000000001
 21
1.0
 31
0.0
 73
     1
 44
1.0
 90
        3
 63
     9
421
 13158600
 45
1.1
441
        0
  0
POINT
  5
4A9
330
48E
100
AcDbEntity
  8
Defpoints
 62
     0
440
 16777216
100
AcDbPoint
 10
1904.830621402356
 20
1244.992811080072
 30
0.0
  0
POINT
  5
4AA
330
48E
100
AcDbEntity
  8
Defpoints
 62
     0
440
 16777216
100
AcDbPoint
 10
1895.00761980899
 20
702.1928110801422
 30
0.0
  0
POINT
  5
4AB
330
48E
100
AcDbEntity
  8
Defpoints
 62
     0
440
 16777216
100
AcDbPoint
 10
1805.167061621785
 20
702.1928110801422
 30
0.0
  0
ENDBLK
  5
490
330
48E
100
AcDbEntity
  8
0
100
AcDbBlockEnd
  0
BLOCK
  5
4AD
330
4AC
100
AcDbEntity
  8
0
100
AcDbBlockBegin
  2
*D13
 70
     1
 10
0.0
 20
0.0
 30
0.0
  3
*D13
  1

  0
LINE
  5
4AE
330
4AC
100
AcDbEntity
  8
0
 62
     1
440
 16777216
370
     9
100
AcDbLine
 10
591.5687415516422
 20
1245.672618176821
 30
0.0
 11
591.5687415516422
 21
1275.792888299118
 31
0.0
  0
LINE
  5
4AF
330
4AC
100
AcDbEntity
  8
0
 62
     1
440
 16777216
370
     9
100
AcDbLine
 10
1413.86874155166
 20
1245.672618176821
 30
0.0
 11
1413.86874155166
 21
1275.792888299118
 31
0.0
  0
LINE
  5
4B0
330
4AC
100
AcDbEntity
  8
0
 62
     1
440
 16777216
370
     9
100
AcDbLine
 10
609.5687415516422
 20
1270.792888299118
 30
0.0
 11
1395.86874155166
 21
1270.792888299118
 31
0.0
  0
SOLID
  5
4B1
330
4AC
100
AcDbEntity
  8
0
 62
     1
440
 16777216
100
AcDbTrace
 10
609.5687415516422
 20
1273.792888299118
 30
0.0
 11
609.5687415516422
 21
1267.792888299118
 31
0.0
 12
591.5687415516422
 22
1270.792888299118
 32
0.0
 13
591.5687415516422
 23
1270.792888299118
 33
0.0
  0
SOLID
  5
4B2
330
4AC
100
AcDbEntity
  8
0
 62
     1
440
 16777216
100
AcDbTrace
 10
1395.86874155166
 20
1273.792888299118
 30
0.0
 11
1395.86874155166
 21
1267.792888299118
 31
0.0
 12
1413.86874155166
 22
1270.792888299118
 32
0.0
 13
1413.86874155166
 23
1270.792888299118
 33
0.0
  0
MTEXT
  5
4B3
330
4AC
100
AcDbEntity
  8
0
 62
     3
440
 16777216
100
AcDbMText
 10
1002.718741551651
 20
1284.364682296389
 30
0.0
 40
20.0
 41
0.0
 46
0.0
 71
     5
 72
     1
  1
822.3mm [32 3/8"]
  7
Arial
 73
     1
 44
1.0
  0
POINT
  5
4B4
330
4AC
100
AcDbEntity
  8
Defpoints
 62
     0
440
 16777216
100
AcDbPoint
 10
591.5687415516422
 20
1225.672618176821
 30
0.0
  0
POINT
  5
4B5
330
4AC
100
AcDbEntity
  8
Defpoints
 62
     0
440
 16777216
100
AcDbPoint
 10
1413.86874155166
 20
1225.672618176821
 30
0.0
  0
POINT
  5
4B6
330
4AC
100
AcDbEntity
  8
Defpoints
 62
     0
440
 16777216
100
AcDbPoint
 10
1413.86874155166
 20
1270.792888299118
 30
0.0
  0
ENDBLK
  5
4B7
330
4AC
100
AcDbEntity
  8
0
100
AcDbBlockEnd
  0
BLOCK
  5
4B9
330
4B8
100
AcDbEntity
  8
0
100
AcDbBlockBegin
  2
*D14
 70
     1
 10
0.0
 20
0.0
 30
0.0
  3
*D14
  1

  0
LINE
  5
4BA
330
4B8
100
AcDbEntity
  8
0
 62
     1
440
 16777216
370
     9
100
AcDbLine
 10
571.5687415516425
 20
1225.672618176821
 30
0.0
 11
533.1909621381042
 21
1225.672618176821
 31
0.0
  0
LINE
  5
4BB
330
4B8
100
AcDbEntity
  8
0
 62
     1
440
 16777216
370
     9
100
AcDbLine
 10
571.5687415516425
 20
682.7726181768195
 30
0.0
 11
533.1909621381043
 21
682.7726181768195
 31
0.0
  0
LINE
  5
4BC
330
4B8
100
AcDbEntity
  8
0
 62
     1
440
 16777216
370
     9
100
AcDbLine
 10
538.1909621381042
 20
1207.672618176821
 30
0.0
 11
538.1909621381042
 21
700.7726181768195
 31
0.0
  0
SOLID
  5
4BD
330
4B8
100
AcDbEntity
  8
0
 62
     1
440
 16777216
100
AcDbTrace
 10
535.190962138104
 20
1207.672618176821
 30
0.0
 11
541.190962138104
 21
1207.672618176821
 31
0.0
 12
538.1909621381042
 22
1225.672618176821
 32
0.0
 13
538.1909621381042
 23
1225.672618176821
 33
0.0
  0
SOLID
  5
4BE
330
4B8
100
AcDbEntity
  8
0
 62
     1
440
 16777216
100
AcDbTrace
 10
535.190962138104
 20
700.7726181768195
 30
0.0
 11
541.1909621381043
 21
700.7726181768195
 31
0.0
 12
538.1909621381042
 22
682.7726181768195
 32
0.0
 13
538.1909621381042
 23
682.7726181768195
 33
0.0
  0
MTEXT
  5
4BF
330
4B8
100
AcDbEntity
  8
0
 62
     3
440
 16777216
100
AcDbMText
 10
524.6191681408329
 20
954.2226181768201
 30
0.0
 40
20.0
 41
0.0
 46
0.0
 71
     5
 72
     1
  1
542.9mm [21 3/8"]
  7
Arial
 11
0.0000000000000001
 21
1.0
 31
0.0
 73
     1
 44
1.0
  0
POINT
  5
4C0
330
4B8
100
AcDbEntity
  8
Defpoints
 62
     0
440
 16777216
100
AcDbPoint
 10
591.5687415516425
 20
1225.672618176821
 30
0.0
  0
POINT
  5
4C1
330
4B8
100
AcDbEntity
  8
Defpoints
 62
     0
440
 16777216
100
AcDbPoint
 10
591.5687415516425
 20
682.7726181768195
 30
0.0
  0
POINT
  5
4C2
330
4B8
100
AcDbEntity
  8
Defpoints
 62
     0
440
 16777216
100
AcDbPoint
 10
538.1909621381042
 20
682.7726181768195
 30
0.0
  0
ENDBLK
  5
4C3
330
4B8
100
AcDbEntity
  8
0
100
AcDbBlockEnd
  0
BLOCK
  5
53D
330
53C
100
AcDbEntity
  8
0
100
AcDbBlockBegin
  2
*D15
 70
     1
 10
0.0
 20
0.0
 30
0.0
  3
*D15
  1

  0
LINE
  5
53F
330
53C
100
AcDbEntity
  8
0
 62
     1
440
 16777216
370
     9
100
AcDbLine
 10
2139.066560400451
 20
1470.839921812938
 30
0.0
 11
2139.066560400451
 21
1500.960191935235
 31
0.0
  0
LINE
  5
540
330
53C
100
AcDbEntity
  8
0
 62
     1
440
 16777216
370
     9
100
AcDbLine
 10
2961.366560400469
 20
1470.839921812938
 30
0.0
 11
2961.366560400469
 21
1500.960191935235
 31
0.0
  0
LINE
  5
541
330
53C
100
AcDbEntity
  8
0
 62
     1
440
 16777216
370
     9
100
AcDbLine
 10
2157.06656040045
 20
1495.960191935235
 30
0.0
 11
2943.366560400468
 21
1495.960191935235
 31
0.0
  0
SOLID
  5
542
330
53C
100
AcDbEntity
  8
0
 62
     1
440
 16777216
100
AcDbTrace
 10
2157.06656040045
 20
1498.960191935235
 30
0.0
 11
2157.06656040045
 21
1492.960191935235
 31
0.0
 12
2139.066560400451
 22
1495.960191935235
 32
0.0
 13
2139.066560400451
 23
1495.960191935235
 33
0.0
  0
SOLID
  5
543
330
53C
100
AcDbEntity
  8
0
 62
     1
440
 16777216
100
AcDbTrace
 10
2943.366560400468
 20
1498.960191935235
 30
0.0
 11
2943.366560400468
 21
1492.960191935235
 31
0.0
 12
2961.366560400469
 22
1495.960191935235
 32
0.0
 13
2961.366560400469
 23
1495.960191935235
 33
0.0
  0
MTEXT
  5
544
330
53C
100
AcDbEntity
  8
0
 62
     3
440
 16777216
100
AcDbMText
 10
2550.216560400459
 20
1509.531985932507
 30
0.0
 40
20.0
 41
0.0
 46
0.0
 71
     5
 72
     1
  1
822.3mm [32 3/8"]
  7
Arial
 73
     1
 44
1.0
  0
POINT
  5
545
330
53C
100
AcDbEntity
  8
Defpoints
 62
     0
440
 16777216
100
AcDbPoint
 10
2139.066560400451
 20
1450.839921812938
 30
0.0
  0
POINT
  5
546
330
53C
100
AcDbEntity
  8
Defpoints
 62
     0
440
 16777216
100
AcDbPoint
 10
2961.366560400469
 20
1450.839921812938
 30
0.0
  0
POINT
  5
547
330
53C
100
AcDbEntity
  8
Defpoints
 62
     0
440
 16777216
100
AcDbPoint
 10
2961.366560400469
 20
1495.960191935235
 30
0.0
  0
ENDBLK
  5
53E
330
53C
100
AcDbEntity
  8
0
100
AcDbBlockEnd
  0
BLOCK
  5
549
330
548
100
AcDbEntity
  8
0
100
AcDbBlockBegin
  2
*D16
 70
     1
 10
0.0
 20
0.0
 30
0.0
  3
*D16
  1

  0
LINE
  5
54B
330
548
100
AcDbEntity
  8
0
 62
     1
440
 16777216
370
     9
100
AcDbLine
 10
2119.066560400451
 20
1450.839921812939
 30
0.0
 11
2080.688780986913
 21
1450.839921812939
 31
0.0
  0
LINE
  5
54C
330
548
100
AcDbEntity
  8
0
 62
     1
440
 16777216
370
     9
100
AcDbLine
 10
2119.066560400451
 20
907.9399218129372
 30
0.0
 11
2080.688780986913
 21
907.9399218129372
 31
0.0
  0
LINE
  5
54D
330
548
100
AcDbEntity
  8
0
 62
     1
440
 16777216
370
     9
100
AcDbLine
 10
2085.688780986913
 20
1432.839921812939
 30
0.0
 11
2085.688780986913
 21
925.939921812937
 31
0.0
  0
SOLID
  5
54E
330
548
100
AcDbEntity
  8
0
 62
     1
440
 16777216
100
AcDbTrace
 10
2082.688780986913
 20
1432.839921812939
 30
0.0
 11
2088.688780986913
 21
1432.839921812939
 31
0.0
 12
2085.688780986913
 22
1450.839921812939
 32
0.0
 13
2085.688780986913
 23
1450.839921812939
 33
0.0
  0
SOLID
  5
54F
330
548
100
AcDbEntity
  8
0
 62
     1
440
 16777216
100
AcDbTrace
 10
2082.688780986913
 20
925.939921812937
 30
0.0
 11
2088.688780986913
 21
925.939921812937
 31
0.0
 12
2085.688780986913
 22
907.9399218129372
 32
0.0
 13
2085.688780986913
 23
907.9399218129372
 33
0.0
  0
MTEXT
  5
550
330
548
100
AcDbEntity
  8
0
 62
     3
440
 16777216
100
AcDbMText
 10
2072.116986989641
 20
1179.389921812937
 30
0.0
 40
20.0
 41
0.0
 46
0.0
 71
     5
 72
     1
  1
542.9mm [21 3/8"]
  7
Arial
 11
0.0000000000000001
 21
1.0
 31
0.0
 73
     1
 44
1.0
  0
POINT
  5
551
330
548
100
AcDbEntity
  8
Defpoints
 62
     0
440
 16777216
100
AcDbPoint
 10
2139.066560400451
 20
1450.839921812939
 30
0.0
  0
POINT
  5
552
330
548
100
AcDbEntity
  8
Defpoints
 62
     0
440
 16777216
100
AcDbPoint
 10
2139.066560400451
 20
907.9399218129372
 30
0.0
  0
POINT
  5
553
330
548
100
AcDbEntity
  8
Defpoints
 62
     0
440
 16777216
100
AcDbPoint
 10
2085.688780986913
 20
907.9399218129372
 30
0.0
  0
ENDBLK
  5
54A
330
548
100
AcDbEntity
  8
0
100
AcDbBlockEnd
  0
BLOCK
  5
555
330
554
100
AcDbEntity
  8
0
100
AcDbBlockBegin
  2
*D17
 70
     1
 10
0.0
 20
0.0
 30
0.0
  3
*D17
  1

  0
LINE
  5
556
330
554
100
AcDbEntity
  8
0
 62
     1
440
 16777216
370
     9
100
AcDbLine
 10
936.7511961705003
 20
1234.989019554964
 30
0.0
 11
936.7511961705003
 21
1326.212329195969
 31
0.0
  0
LINE
  5
557
330
554
100
AcDbEntity
  8
0
 62
     1
440
 16777216
370
     9
100
AcDbLine
 10
1555.751196170471
 20
1242.374974921386
 30
0.0
 11
1555.751196170471
 21
1326.212329195969
 31
0.0
  0
LINE
  5
558
330
554
100
AcDbEntity
  8
0
 62
     1
440
 16777216
370
     9
100
AcDbLine
 10
954.7511961705003
 20
1321.212329195969
 30
0.0
 11
1537.751196170471
 21
1321.212329195969
 31
0.0
  0
SOLID
  5
559
330
554
100
AcDbEntity
  8
0
 62
     1
440
 16777216
100
AcDbTrace
 10
954.7511961705003
 20
1324.212329195969
 30
0.0
 11
954.7511961705003
 21
1318.212329195969
 31
0.0
 12
936.7511961705003
 22
1321.212329195969
 32
0.0
 13
936.7511961705003
 23
1321.212329195969
 33
0.0
  0
SOLID
  5
55A
330
554
100
AcDbEntity
  8
0
 62
     1
440
 16777216
100
AcDbTrace
 10
1537.751196170471
 20
1324.212329195969
 30
0.0
 11
1537.751196170471
 21
1318.212329195969
 31
0.0
 12
1555.751196170471
 22
1321.212329195969
 32
0.0
 13
1555.751196170471
 23
1321.212329195969
 33
0.0
  0
MTEXT
  5
55B
330
554
100
AcDbEntity
  8
0
 62
     3
440
 16777216
100
AcDbMText
 10
1246.251196170486
 20
1334.78412319324
 30
0.0
 40
20.0
 41
0.0
 46
0.0
 71
     5
 72
     1
  1
619mm [24 3/8"]
  7
Arial
 73
     1
 44
1.0
  0
POINT
  5
55C
330
554
100
AcDbEntity
  8
Defpoints
 62
     0
440
 16777216
100
AcDbPoint
 10
936.7511961705003
 20
1214.989019554964
 30
0.0
  0
POINT
  5
55D
330
554
100
AcDbEntity
  8
Defpoints
 62
     0
440
 16777216
100
AcDbPoint
 10
1555.751196170471
 20
1222.374974921386
 30
0.0
  0
POINT
  5
55E
330
554
100
AcDbEntity
  8
Defpoints
 62
     0
440
 16777216
100
AcDbPoint
 10
1555.751196170471
 20
1321.212329195969
 30
0.0
  0
ENDBLK
  5
55F
330
554
100
AcDbEntity
  8
0
100
AcDbBlockEnd
  0
BLOCK
  5
561
330
560
100
AcDbEntity
  8
0
100
AcDbBlockBegin
  2
*D18
 70
     1
 10
0.0
 20
0.0
 30
0.0
  3
*D18
  1

  0
LINE
  5
562
330
560
100
AcDbEntity
  8
0
 62
     1
440
 16777216
370
     9
100
AcDbLine
 10
898.8448598237031
 20
1199.281147344711
 30
0.0
 11
814.1813000431318
 21
1199.281147344711
 31
0.0
  0
LINE
  5
563
330
560
100
AcDbEntity
  8
0
 62
     1
440
 16777216
370
     9
100
AcDbLine
 10
889.0218582303372
 20
656.4811473447812
 30
0.0
 11
814.1813000431321
 21
656.4811473447812
 31
0.0
  0
LINE
  5
564
330
560
100
AcDbEntity
  8
0
 62
     1
440
 16777216
370
     9
100
AcDbLine
 10
819.181300043132
 20
1181.281147344711
 30
0.0
 11
819.181300043132
 21
674.4811473447811
 31
0.0
  0
SOLID
  5
565
330
560
100
AcDbEntity
  8
0
 62
     1
440
 16777216
100
AcDbTrace
 10
816.1813000431319
 20
1181.281147344711
 30
0.0
 11
822.1813000431318
 21
1181.281147344711
 31
0.0
 12
819.181300043132
 22
1199.281147344711
 32
0.0
 13
819.181300043132
 23
1199.281147344711
 33
0.0
  0
SOLID
  5
566
330
560
100
AcDbEntity
  8
0
 62
     1
440
 16777216
100
AcDbTrace
 10
816.1813000431321
 20
674.4811473447811
 30
0.0
 11
822.1813000431321
 21
674.4811473447811
 31
0.0
 12
819.181300043132
 22
656.4811473447812
 32
0.0
 13
819.181300043132
 23
656.4811473447812
 33
0.0
  0
MTEXT
  5
567
330
560
100
AcDbEntity
  8
0
 62
     3
440
 16777216
100
AcDbMText
 10
805.6095060458604
 20
927.8811473447458
 30
0.0
 40
20.0
 41
0.0
 46
0.0
 71
     5
 72
     1
  1
542.8mm [21 3/8"]
  7
Arial
 11
0.0000000000000001
 21
1.0
 31
0.0
 73
     1
 44
1.0
  0
POINT
  5
568
330
560
100
AcDbEntity
  8
Defpoints
 62
     0
440
 16777216
100
AcDbPoint
 10
918.844859823703
 20
1199.281147344711
 30
0.0
  0
POINT
  5
569
330
560
100
AcDbEntity
  8
Defpoints
 62
     0
440
 16777216
100
AcDbPoint
 10
909.0218582303371
 20
656.4811473447812
 30
0.0
  0
POINT
  5
56A
330
560
100
AcDbEntity
  8
Defpoints
 62
     0
440
 16777216
100
AcDbPoint
 10
819.181300043132
 20
656.4811473447812
 30
0.0
  0
ENDBLK
  5
56B
330
560
100
AcDbEntity
  8
0
100
AcDbBlockEnd
  0
BLOCK
  5
5EB
330
5EA
100
AcDbEntity
  8
0
100
AcDbBlockBegin
  2
*D19
 70
     1
 10
0.0
 20
0.0
 30
0.0
  3
*D19
  1

  0
LINE
  5
602
330
5EA
100
AcDbEntity
  8
0
 62
     1
440
 16777216
370
     9
100
AcDbLine
 10
2192.977332943464
 20
1328.61963775582
 30
0.0
 11
2192.977332943464
 21
1419.842947396825
 31
0.0
  0
LINE
  5
603
330
5EA
100
AcDbEntity
  8
0
 62
     1
440
 16777216
370
     9
100
AcDbLine
 10
2811.977332943434
 20
1336.005593122242
 30
0.0
 11
2811.977332943434
 21
1419.842947396825
 31
0.0
  0
LINE
  5
604
330
5EA
100
AcDbEntity
  8
0
 62
     1
440
 16777216
370
     9
100
AcDbLine
 10
2210.977332943464
 20
1414.842947396825
 30
0.0
 11
2793.977332943434
 21
1414.842947396825
 31
0.0
  0
SOLID
  5
605
330
5EA
100
AcDbEntity
  8
0
 62
     1
440
 16777216
100
AcDbTrace
 10
2210.977332943464
 20
1417.842947396825
 30
0.0
 11
2210.977332943464
 21
1411.842947396825
 31
0.0
 12
2192.977332943464
 22
1414.842947396825
 32
0.0
 13
2192.977332943464
 23
1414.842947396825
 33
0.0
  0
SOLID
  5
606
330
5EA
100
AcDbEntity
  8
0
 62
     1
440
 16777216
100
AcDbTrace
 10
2793.977332943434
 20
1417.842947396825
 30
0.0
 11
2793.977332943434
 21
1411.842947396825
 31
0.0
 12
2811.977332943434
 22
1414.842947396825
 32
0.0
 13
2811.977332943434
 23
1414.842947396825
 33
0.0
  0
MTEXT
  5
607
330
5EA
100
AcDbEntity
  8
0
 62
     3
440
 16777216
100
AcDbMText
 10
2502.477332943449
 20
1428.414741394096
 30
0.0
 40
20.0
 41
0.0
 46
0.0
 71
     5
 72
     1
  1
619mm [24 3/8"]
  7
Arial
 73
     1
 44
1.0
  0
POINT
  5
608
330
5EA
100
AcDbEntity
  8
Defpoints
 62
     0
440
 16777216
100
AcDbPoint
 10
2192.977332943464
 20
1308.61963775582
 30
0.0
  0
POINT
  5
609
330
5EA
100
AcDbEntity
  8
Defpoints
 62
     0
440
 16777216
100
AcDbPoint
 10
2811.977332943434
 20
1316.005593122242
 30
0.0
  0
POINT
  5
60A
330
5EA
100
AcDbEntity
  8
Defpoints
 62
     0
440
 16777216
100
AcDbPoint
 10
2811.977332943434
 20
1414.842947396825
 30
0.0
  0
ENDBLK
  5
5EC
330
5EA
100
AcDbEntity
  8
0
100
AcDbBlockEnd
  0
BLOCK
  5
5F7
330
5F6
100
AcDbEntity
  8
0
100
AcDbBlockBegin
  2
*D20
 70
     1
 10
0.0
 20
0.0
 30
0.0
  3
*D20
  1

  0
LINE
  5
60B
330
5F6
100
AcDbEntity
  8
0
 62
     1
440
 16777216
370
     9
100
AcDbLine
 10
2155.070996596667
 20
1292.911765545567
 30
0.0
 11
2070.407436816096
 21
1292.911765545567
 31
0.0
  0
LINE
  5
60C
330
5F6
100
AcDbEntity
  8
0
 62
     1
440
 16777216
370
     9
100
AcDbLine
 10
2145.247995003301
 20
750.1117655456368
 30
0.0
 11
2070.407436816096
 21
750.1117655456368
 31
0.0
  0
LINE
  5
60D
330
5F6
100
AcDbEntity
  8
0
 62
     1
440
 16777216
370
     9
100
AcDbLine
 10
2075.407436816096
 20
1274.911765545567
 30
0.0
 11
2075.407436816096
 21
768.111765545637
 31
0.0
  0
SOLID
  5
60E
330
5F6
100
AcDbEntity
  8
0
 62
     1
440
 16777216
100
AcDbTrace
 10
2072.407436816096
 20
1274.911765545567
 30
0.0
 11
2078.407436816096
 21
1274.911765545567
 31
0.0
 12
2075.407436816096
 22
1292.911765545567
 32
0.0
 13
2075.407436816096
 23
1292.911765545567
 33
0.0
  0
SOLID
  5
60F
330
5F6
100
AcDbEntity
  8
0
 62
     1
440
 16777216
100
AcDbTrace
 10
2072.407436816096
 20
768.111765545637
 30
0.0
 11
2078.407436816096
 21
768.111765545637
 31
0.0
 12
2075.407436816096
 22
750.1117655456368
 32
0.0
 13
2075.407436816096
 23
750.1117655456368
 33
0.0
  0
MTEXT
  5
610
330
5F6
100
AcDbEntity
  8
0
 62
     3
440
 16777216
100
AcDbMText
 10
2061.835642818825
 20
1021.511765545601
 30
0.0
 40
20.0
 41
0.0
 46
0.0
 71
     5
 72
     1
  1
542.8mm [21 3/8"]
  7
Arial
 11
0.0000000000000001
 21
1.0
 31
0.0
 73
     1
 44
1.0
  0
POINT
  5
611
330
5F6
100
AcDbEntity
  8
Defpoints
 62
     0
440
 16777216
100
AcDbPoint
 10
2175.070996596667
 20
1292.911765545567
 30
0.0
  0
POINT
  5
612
330
5F6
100
AcDbEntity
  8
Defpoints
 62
     0
440
 16777216
100
AcDbPoint
 10
2165.247995003301
 20
750.1117655456368
 30
0.0
  0
POINT
  5
613
330
5F6
100
AcDbEntity
  8
Defpoints
 62
     0
440
 16777216
100
AcDbPoint
 10
2075.407436816096
 20
750.1117655456368
 30
0.0
  0
ENDBLK
  5
5F8
330
5F6
100
AcDbEntity
  8
0
100
AcDbBlockEnd
  0
ENDSEC
  0
SECTION
  2
ENTITIES
  0
LINE
  5
2B1
330
1F
100
AcDbEntity
  8
0
  6
ACAD_ISO02W100
 62
     2
 48
2.0
370
    18
100
AcDbLine
 10
652.3584259834606
 20
1193.564003639664
 30
0.0
 11
1444.558425983443
 21
1193.564003639664
 31
0.0
  0
LINE
  5
2B2
330
1F
100
AcDbEntity
  8
0
  6
ACAD_ISO02W100
 62
     2
 48
2.0
370
    18
100
AcDbLine
 10
637.3584259834606
 20
1178.564003639664
 30
0.0
 11
637.3584259834606
 21
665.7640036396757
 31
0.0
  0
LINE
  5
2B3
330
1F
100
AcDbEntity
  8
0
  6
ACAD_ISO02W100
 62
     2
 48
2.0
370
    18
100
AcDbLine
 10
652.3584259834606
 20
650.7640036396757
 30
0.0
 11
1444.558425983443
 21
650.7640036396757
 31
0.0
  0
LINE
  5
2B4
330
1F
100
AcDbEntity
  8
0
  6
ACAD_ISO02W100
 62
     2
 48
2.0
370
    18
100
AcDbLine
 10
1459.558425983443
 20
1178.564003639664
 30
0.0
 11
1459.558425983443
 21
665.7640036396757
 31
0.0
  0
DIMENSION
  5
2E4
330
1F
100
AcDbEntity
  8
0
100
AcDbDimension
280
     0
  2
*D3
 10
1459.558425983443
 20
1296.989770495698
 30
0.0
 11
1048.458425983452
 21
1310.561564492969
 31
0.0
 70
    32
 71
     5
 42
822.1999999999823
 73
     0
 74
     0
 75
     0
  3
毫米英寸(目录图)
100
AcDbAlignedDimension
 13
637.3584259834606
 23
1202.950308590911
 33
0.0
 14
1459.558425983443
 24
1207.032886323476
 34
0.0
100
AcDbRotatedDimension
1001
ACAD
1000
DSTYLE
1002
{
1070
   140
1040
20.0
1002
}
  0
DIMENSION
  5
2E5
330
1F
100
AcDbEntity
  8
0
100
AcDbDimension
280
     0
  2
*D4
 10
528.0659436259449
 20
650.7640036396759
 30
0.0
 11
514.4941496286734
 21
922.1640036396696
 31
0.0
 70
    32
 71
     5
 42
542.7999999999881
 73
     0
 74
     0
 75
     0
  3
毫米英寸(目录图)
100
AcDbAlignedDimension
 13
625.2947705775039
 23
1193.564003639664
 33
0.0
 14
635.7733673534712
 24
650.7640036396757
 34
0.0
 50
90.0
100
AcDbRotatedDimension
1001
ACAD
1000
DSTYLE
1002
{
1070
   140
1040
20.0
1002
}
  0
ARC
  5
2E6
330
1F
100
AcDbEntity
  8
0
  6
ACAD_ISO02W100
 62
     2
 48
2.0
370
    18
100
AcDbCircle
 10
652.3584259834167
 20
1178.564003639722
 30
0.0
 40
14.99999999994179
100
AcDbArc
 50
89.99999999983323
 51
180.0000000002223
  0
ARC
  5
2E7
330
1F
100
AcDbEntity
  8
0
  6
ACAD_ISO02W100
 62
     2
 48
2.0
370
    18
100
AcDbCircle
 10
652.3584259834167
 20
665.7640036396757
 30
0.0
 40
14.99999999995634
100
AcDbArc
 50
180.0
 51
270.0000000001669
  0
ARC
  5
2E8
330
1F
100
AcDbEntity
  8
0
  6
ACAD_ISO02W100
 62
     2
 48
2.0
370
    18
100
AcDbCircle
 10
1444.558425983487
 20
665.7640036396757
 30
0.0
 40
15.0
100
AcDbArc
 50
269.9999999998332
 51
0.0
  0
ARC
  5
2E9
330
1F
100
AcDbEntity
  8
0
  6
ACAD_ISO02W100
 62
     2
 48
2.0
370
    18
100
AcDbCircle
 10
1444.558425983487
 20
1178.564003639722
 30
0.0
 40
14.99999999994179
100
AcDbArc
 50
359.9999999997777
 51
90.00000000016676
  0
MULTILEADER
  5
391
330
1F
100
AcDbEntity
  8
0
160
               464
310
D0010000180000000C00000016000000000000C00C00000033000000000000000C00000013000000993A00000C00000033000000000000000C00000010000000000000000C00000016000000000000C00C00000017000000050000000C00000012000000FF7F00000C00000013000000010000000C00000014000000010000
310
0054000000070000000300000050C7FBE5F80F914075B3F0AD1CA684400000000000000000A51C513B4E09914075B3F0AD1C5684400000000000000000FA71A690A302914075B3F0AD1CA6844000000000000000000C00000014000000010000000C00000013000000891300003C0000000600000002000000A51C513B4E09
310
914075B3F0AD1CA684400000000000000000A51C513B4E099140A8EF2B5BB77F854000000000000000000C00000013000000112700003C0000000600000002000000A51C513B4E099140A8EF2B5BB77F85400000000000000000EAF14A8BB8798F40A8EF2B5BB77F854000000000000000000C00000016000000000000C00C
310
00000012000000FF7F00000C00000017000000000000000C000000130000009A3A00000C00000016000000000000C00C00000012000000FF7F00000C00000017000000FDFFFFFF0C0000003300000000000000
370
    -3
100
AcDbMLeader
270
     2
300
CONTEXT_DATA{
 40
1.0
 10
1003.215109429843
 20
687.9645293648255
 30
0.0
 41
4.0
140
10.0
145
2.0
174
     1
175
     1
176
     2
177
     0
290
     1
304

 11
0.0
 21
0.0
 31
1.0
340
11
 12
1005.215109429844
 22
689.9645293648254
 32
0.0
 13
1.0
 23
0.0
 33
0.0
 42
0.0
 43
0.0
 44
0.0
 45
1.0
170
     1
 90
-1073741824
171
     3
172
     5
 91
-1073741824
141
0.0
 92
        0
291
     0
292
     0
173
     0
293
     0
142
0.0
143
0.0
294
     0
295
     0
296
     0
110
1090.3263981508
120
650.7640036396757
130
0.0
111
1.0
121
0.0
131
0.0
112
0.0
122
1.0
132
0.0
297
     0
302
LEADER{
290
     1
291
     1
 10
1090.3263981508
 20
687.9645293648255
 30
0.0
 11
-1.0
 21
0.0
 31
0.0
 90
        0
 40
83.11128872095645
304
LEADER_LINE{
 10
1090.3263981508
 20
650.7640036396757
 30
0.0
 91
        0
305
}
271
     0
303
}
272
     9
273
     9
301
}
340
343
 90
   279682
170
     1
 91
-1073741824
341
14
171
     5
290
     1
291
     1
 41
8.0
 42
10.0
172
     2
343
11
173
     1
 95
        1
174
     1
175
     2
 92
-1056964608
292
     0
 93
-1056964608
 10
1.0
 20
1.0
 30
1.0
 43
0.0
176
     0
293
     0
294
     0
178
     0
179
     3
 45
1.0
271
     0
272
     9
273
     9
295
     0
1001
ACAD_MLEADERVER
1070
     2
  0
MTEXT
  5
392
330
1F
100
AcDbEntity
  8
0
370
    -3
100
AcDbMText
 10
1018.42982120464
 20
708.25035146153
 30
0.0
 40
12.0
 41
201.1158221863448
 46
0.0
 71
     1
 72
     5
  1
\A1;Cut Line
 73
     1
 44
1.0
101
Embedded Object
 70
     1
 10
1.0
 20
0.0
 30
0.0
 11
1018.42982120464
 21
708.25035146153
 31
0.0
 40
201.1158221863448
 41
0.0
 42
60.90859481582537
 43
12.40927694406548
 71
     2
 72
     1
 44
201.1158221863448
 45
12.5
 73
     0
 74
     0
 46
30.41614051781163
  0
LWPOLYLINE
  5
3E1
330
1F
100
AcDbEntity
  8
0
 48
0.01
100
AcDbPolyline
 90
        2
 70
     1
 43
0.0
 10
688.7034835055493
 20
491.8858753261202
 10
678.7285415682123
 20
491.8858753261202
  0
LWPOLYLINE
  5
3E2
330
1F
100
AcDbEntity
  8
0
 48
0.01
100
AcDbPolyline
 90
        2
 70
     1
 43
0.0
 10
670.8090944481776
 20
491.8858753261202
 10
659.9840328517275
 20
491.8858753261202
  0
LWPOLYLINE
  5
3E3
330
1F
100
AcDbEntity
  8
0
 48
0.01
100
AcDbPolyline
 90
        2
 70
     1
 43
0.0
 10
688.7034835055493
 20
491.8858753261202
 10
678.7285415682123
 20
491.8858753261202
  0
LWPOLYLINE
  5
3E4
330
1F
100
AcDbEntity
  8
0
 48
0.01
100
AcDbPolyline
 90
        2
 70
     0
 43
0.0
 10
659.9840328517275
 20
491.8858753261202
 10
670.8090944481776
 20
491.8858753261202
  0
LWPOLYLINE
  5
3E5
330
1F
100
AcDbEntity
  8
0
 48
0.01
100
AcDbPolyline
 90
        2
 70
     0
 43
0.0
 10
678.7285415682123
 20
491.8858753261202
 10
688.7034835055493
 20
491.8858753261202
  0
LWPOLYLINE
  5
3E6
330
1F
100
AcDbEntity
  8
0
 48
0.01
100
AcDbPolyline
 90
        2
 70
     1
 43
0.0
 10
670.8090944481776
 20
491.8858753261202
 10
659.9840328517275
 20
491.8858753261202
  0
HATCH
  5
3E7
330
1F
100
AcDbEntity
  8
0
 48
0.01
100
AcDbHatch
 10
0.0
 20
0.0
 30
0.0
210
0.0
220
0.0
230
1.0
  2
SOLID
 70
     1
 71
     1
 91
        4
 92
        1
 93
       18
 72
     2
 10
670.8361308653544
 20
521.2722368603841
 40
7.435636738141652
 50
269.7916686807976
 51
320.9989335064356
 73
     1
 72
     2
 10
668.0223968568586
 20
523.5740914694783
 40
11.07093788473779
 50
320.9054195612385
 51
359.1320713946947
 73
     1
 72
     1
 10
679.0920645511172
 20
523.4063929709441
 11
689.7333074534985
 21
523.4063929709441
 72
     2
 10
629.241735558557
 20
530.9976838266877
 40
60.96603945786031
 50
7.152847449079255
 51
14.74728455778298
 73
     0
 72
     2
 10
674.1393717730377
 20
519.4084410513259
 40
14.59898874689612
 50
15.61661756341865
 51
45.01773962628805
 73
     0
 72
     2
 10
676.6036577738235
 20
500.666337278808
 40
11.51245466931479
 50
313.0278119653455
 51
349.7816523316985
 73
     0
 72
     2
 10
661.4620768058033
 20
496.2614536993823
 40
27.24524081107597
 50
346.3119490089176
 51
360.9612354025384
 73
     0
 72
     1
 10
688.7034835055493
 20
495.8043892919373
 11
688.7034835055493
 21
491.8858753261202
 72
     1
 10
688.7034835055493
 20
491.8858753261202
 11
678.7285415682123
 21
491.8858753261202
 72
     1
 10
678.7285415682123
 20
491.8858753261202
 11
678.7285415682123
 21
495.8043892919373
 72
     2
 10
668.5787941165927
 20
495.7655669809433
 40
10.14982169811313
 50
0.2191526177337482
 51
32.34155472375495
 73
     1
 72
     2
 10
673.9474859489277
 20
498.547625903579
 40
4.158486993403068
 50
39.5467975299421
 51
90.81473986293767
 73
     1
 72
     1
 10
673.8883547010158
 20
502.705692469884
 11
670.8090944481776
 21
502.705692469884
 72
     1
 10
670.8090944481776
 20
502.705692469884
 11
670.8090944481776
 21
491.8858753261202
 72
     1
 10
670.8090944481776
 20
491.8858753261202
 11
659.9840328517275
 21
491.8858753261202
 72
     1
 10
659.9840328517275
 20
491.8858753261202
 11
659.9840328517275
 21
528.169608894383
 72
     1
 10
659.9840328517275
 20
528.169608894383
 11
670.8090944481776
 21
528.169608894383
 72
     1
 10
670.8090944481776
 20
528.169608894383
 11
670.8090944481776
 21
513.8366492754149
 97
        1
330
3EC
 92
        1
 93
       13
 72
     1
 10
754.2591366050252
 20
491.8858753261202
 11
743.7104781007988
 21
491.8858753261202
 72
     1
 10
743.7104781007988
 20
491.8858753261202
 11
754.2591366050252
 21
491.8858753261202
 72
     1
 10
754.2591366050252
 20
491.8858753261202
 11
743.7104781007988
 21
491.8858753261202
 72
     1
 10
743.7104781007988
 20
491.8858753261202
 11
754.2591366050252
 21
491.8858753261202
 72
     1
 10
754.2591366050252
 20
491.8858753261202
 11
743.7104781007988
 21
491.8858753261202
 72
     1
 10
743.7104781007988
 20
491.8858753261202
 11
743.7104781007988
 21
512.0210938711752
 72
     2
 10
757.0153643430923
 20
509.691681039834
 40
13.50726330753893
 50
189.9306651113157
 51
241.3472543704124
 73
     0
 72
     2
 10
760.0154376106153
 20
504.5209077418632
 40
19.48397167083886
 50
240.8964322887963
 51
271.180634879441
 73
     0
 72
     1
 10
760.4168952550416
 20
524.0007430550731
 11
762.9885725894669
 21
524.0007430550731
 72
     1
 10
762.9885725894669
 20
524.0007430550731
 11
762.9885725894669
 21
513.7906489059288
 72
     1
 10
762.9885725894669
 20
513.7906489059288
 11
759.0656931377248
 21
513.7906489059288
 72
     2
 10
759.519951274971
 20
508.4722946039034
 40
5.337718888919356
 50
94.88197199986066
 51
170.2622711153988
 73
     1
 72
     1
 10
754.2591366050252
 20
509.3751079542745
 11
754.2591366050252
 21
491.8858753261202
 97
        1
330
3E9
 92
        1
 93
       24
 72
     2
 10
777.9457626224379
 20
507.3113616014988
 40
15.42595119482968
 50
89.55516228348246
 51
178.5796567088711
 73
     0
 72
     2
 10
779.1762546108039
 20
507.3418713380133
 40
16.65682136566605
 50
178.579656708856
 51
269.999999999959
 73
     0
 72
     1
 10
779.1762546107919
 20
523.9986927036794
 11
795.5228504536858
 21
523.9986927036794
 72
     1
 10
795.5228504536858
 20
523.9986927036794
 11
795.5228504536858
 21
501.9466830054461
 72
     1
 10
795.5228504536858
 20
501.9466830054461
 11
798.19402082963
 21
501.9466830054461
 72
     1
 10
798.19402082963
 20
501.9466830054461
 11
798.19402082963
 21
512.6471576733348
 72
     2
 10
812.4638410623386
 20
509.7183009806664
 40
14.56729113459361
 50
191.5987796846282
 51
348.4012203153716
 73
     0
 72
     1
 10
826.7336612950471
 20
512.6471576733348
 11
826.7336612950471
 21
491.8858753261202
 72
     1
 10
826.7336612950471
 20
491.8858753261202
 11
815.9149991790732
 21
491.8858753261202
 72
     1
 10
815.9149991790732
 20
491.8858753261202
 11
815.9149991790732
 21
510.8637388697982
 72
     2
 10
812.3391873525276
 20
509.8776648569843
 40
3.709281895139532
 50
15.41684788794919
 51
164.5831521120513
 73
     1
 72
     1
 10
808.7633755259821
 20
510.8637388697982
 11
808.7633755259821
 21
491.8858753261202
 72
     1
 10
808.7633755259821
 20
491.8858753261202
 11
795.5228504536858
 21
491.8858753261202
 72
     1
 10
795.5228504536858
 20
491.8858753261202
 11
784.5156079028488
 21
491.8858753261202
 72
     1
 10
784.5156079028488
 20
491.8858753261202
 11
784.5156079028488
 21
513.5435353891304
 72
     1
 10
784.5156079028488
 20
513.5435353891304
 11
778.9815550554698
 21
513.5435353891304
 72
     2
 10
779.6403956804375
 20
507.1925311248813
 40
6.385086227578833
 50
95.92256612287533
 51
227.9508210801624
 73
     1
 72
     2
 10
780.1090440980587
 20
510.3144836781948
 40
9.184150253965649
 50
238.8908443430261
 51
292.3701724773347
 73
     1
 72
     1
 10
783.604430812642
 20
501.8214931799703
 11
783.604430812642
 21
491.8858753261202
 72
     1
 10
783.604430812642
 20
491.8858753261202
 11
778.0655266962475
 21
491.8858753261202
 72
     1
 10
778.0655266962475
 20
491.8858753261202
 11
783.604430812642
 21
491.8858753261202
 72
     1
 10
783.604430812642
 20
491.8858753261202
 11
778.0655266962475
 21
491.8858753261202
 72
     1
 10
778.0655266962475
 20
491.8858753261202
 11
783.604430812642
 21
491.8858753261202
 72
     1
 10
783.604430812642
 20
491.8858753261202
 11
778.0655266962475
 21
491.8858753261202
 97
        1
330
3E8
 92
       33
 93
       19
 72
     2
 10
705.1072472019333
 20
507.0475399242172
 40
16.35933514081747
 50
89.56013260017398
 51
220.1649815580672
 73
     1
 72
     2
 10
705.6329335489784
 20
512.2630285214507
 40
20.4527041875955
 50
230.4352990380096
 51
282.0112670967891
 73
     1
 72
     1
 10
709.8892238682797
 20
492.2581015957378
 11
709.8892238682797
 21
501.7952120156822
 72
     2
 10
706.4749250008018
 20
509.3588044520847
 40
8.298515969766201
 50
65.70499677465085
 51
133.5351328222416
 73
     0
 72
     2
 10
705.5883250229681
 20
507.0281554239818
 40
6.074967132317223
 50
142.6523419819343
 51
269.1039790738914
 73
     0
 72
     1
 10
705.4933254287002
 20
513.1023797148541
 11
711.0273782760789
 21
513.1023797148541
 72
     1
 10
711.0273782760789
 20
513.1023797148541
 11
711.0273782760789
 21
491.8858753261202
 72
     1
 10
711.0273782760789
 20
491.8858753261202
 11
734.9877139151447
 21
491.8858753261202
 72
     1
 10
734.9877139151447
 20
491.8858753261202
 11
734.9877139151447
 21
508.8967899785179
 72
     2
 10
740.155550323861
 20
507.9377729730121
 40
5.256067614110557
 50
190.5130243045957
 51
267.3007158678412
 73
     0
 72
     1
 10
739.9080212316142
 20
513.1880087879631
 11
743.8125974698364
 21
513.1880087879631
 72
     1
 10
743.8125974698364
 20
513.1880087879631
 11
743.8125974698364
 21
523.7867574999238
 72
     1
 10
743.8125974698364
 20
523.7867574999238
 11
741.2409201354103
 21
523.7867574999238
 72
     2
 10
740.9601455708354
 20
499.1867871475654
 40
24.60157262642021
 50
89.34607648683831
 51
115.1753773784156
 73
     1
 72
     2
 10
735.9887832223577
 20
510.1179159560261
 40
12.59492606554659
 50
115.8616959887303
 51
169.2203747648565
 73
     1
 72
     1
 10
723.6161094555477
 20
512.4735701022616
 11
723.6161094555477
 21
501.9570871333717
 72
     1
 10
723.6161094555477
 20
501.9570871333717
 11
721.8367815692886
 21
501.9570871333717
 72
     1
 10
721.8367815692886
 20
501.9570871333717
 11
721.8367815692886
 21
523.4063929709441
 72
     1
 10
721.8367815692886
 20
523.4063929709441
 11
704.9816556210785
 21
523.4063929709441
 97
        1
330
3EB
 75
     1
 76
     1
 98
        1
 10
-12829.00506524571
 20
-9864.65027406845
450
        0
451
        0
460
0.0
461
0.0
452
        0
462
0.0
453
        2
463
0.0
 63
     5
421
      255
463
1.0
 63
     2
421
 16776960
470
LINEAR
1001
GradientColor1ACI
1070
     5
1001
GradientColor2ACI
1070
     2
1001
ACAD
1010
0.0
1020
0.0
1030
0.0
  0
LWPOLYLINE
  5
3E8
102
{ACAD_REACTORS
330
3E7
102
}
330
1F
100
AcDbEntity
  8
0
 48
0.01
100
AcDbPolyline
 90
       24
 70
     1
 43
0.0
 10
778.0655266962475
 20
491.8858753261202
 42
-0.4092355721717349
 10
762.5245510211652
 20
506.9289965742822
 42
-0.4214930677972201
 10
779.1762546107919
 20
523.9986927036794
 10
795.5228504536858
 20
523.9986927036794
 10
795.5228504536858
 20
501.9466830054461
 10
798.19402082963
 20
501.9466830054461
 10
798.19402082963
 20
512.6471576733348
 42
-0.8155978317966516
 10
826.7336612950471
 20
512.6471576733348
 10
826.7336612950471
 20
491.8858753261202
 10
815.9149991790732
 20
491.8858753261202
 10
815.9149991790732
 20
510.8637388697982
 42
0.7615635314222832
 10
808.7633755259821
 20
510.8637388697982
 10
808.7633755259821
 20
491.8858753261202
 10
795.5228504536858
 20
491.8858753261202
 10
784.5156079028488
 20
491.8858753261202
 10
784.5156079028488
 20
513.5435353891304
 10
778.9815550554698
 20
513.5435353891304
 42
0.6495828859663999
 10
775.3638678028967
 20
502.4511562771991
 42
0.2376772601789094
 10
783.604430812642
 20
501.8214931799703
 10
783.604430812642
 20
491.8858753261202
 10
778.0655266962475
 20
491.8858753261202
 10
783.604430812642
 20
491.8858753261202
 10
778.0655266962475
 20
491.8858753261202
 10
783.604430812642
 20
491.8858753261202
  0
LWPOLYLINE
  5
3E9
102
{ACAD_REACTORS
330
3E7
102
}
330
1F
100
AcDbEntity
  8
0
 48
0.01
100
AcDbPolyline
 90
       13
 70
     1
 43
0.0
 10
754.2591366050252
 20
491.8858753261202
 10
743.7104781007988
 20
491.8858753261202
 10
754.2591366050252
 20
491.8858753261202
 10
743.7104781007988
 20
491.8858753261202
 10
754.2591366050252
 20
491.8858753261202
 10
743.7104781007988
 20
491.8858753261202
 10
743.7104781007988
 20
512.0210938711752
 42
-0.2281884693300767
 10
750.5386327641762
 20
521.5448709106603
 42
-0.1329142652906163
 10
760.4168952550416
 20
524.0007430550731
 10
762.9885725894669
 20
524.0007430550731
 10
762.9885725894669
 20
513.7906489059288
 10
759.0656931377248
 20
513.7906489059288
 42
0.3413058790982946
 10
754.2591366050252
 20
509.3751079542745
  0
HATCH
  5
3EA
330
1F
100
AcDbEntity
  8
0
 48
0.01
100
AcDbHatch
 10
0.0
 20
0.0
 30
0.0
210
0.0
220
0.0
230
1.0
  2
SOLID
 70
     1
 71
     0
 91
        1
 92
        7
 72
     1
 73
     1
 93
       18
 10
721.8367815692886
 20
523.4063929709162
 42
0.0
 10
704.9816556210785
 20
523.4063929709162
 42
0.6353853386189156
 10
692.6056006416892
 20
496.495920165483
 42
0.2289202173365143
 10
709.8892238682797
 20
492.2581015957097
 42
0.0
 10
709.8892238682797
 20
501.7952120156548
 42
-0.3049204153943832
 10
700.75891355917
 20
503.342777482403
 42
-0.6155147312710259
 10
705.4933254287002
 20
513.1023797148404
 42
0.0
 10
711.0273782760789
 20
513.1023797148404
 42
0.0
 10
711.0273782760789
 20
491.8858753260928
 42
0.0
 10
734.9877139151447
 20
491.8858753260928
 42
0.0
 10
734.9877139151447
 20
506.9787559674542
 42
-0.454745117684773
 10
739.9080212316142
 20
513.188008787949
 42
0.0
 10
743.8125974698364
 20
513.188008787949
 42
0.0
 10
743.8125974698364
 20
523.6224351613969
 42
0.1398003542089238
 10
730.4948725878094
 20
521.4514550562308
 42
0.2371211591682391
 10
723.6161094555477
 20
512.4735701022337
 42
0.0
 10
723.6161094555477
 20
501.9570871333303
 42
0.0
 10
721.8367815692886
 20
501.9570871333303
 42
0.0
 97
        0
 75
     1
 76
     1
 47
0.1121286295065503
 98
        1
 10
717.1152036318804
 20
511.2332326173675
450
        0
451
        0
460
0.0
461
0.0
452
        0
462
0.0
453
        2
463
0.0
 63
     5
421
      255
463
1.0
 63
     2
421
 16776960
470
LINEAR
1001
GradientColor1ACI
1070
     5
1001
GradientColor2ACI
1070
     2
1001
ACAD
1010
0.0
1020
0.0
1030
0.0
  0
LWPOLYLINE
  5
3EB
102
{ACAD_REACTORS
330
3E7
102
}
330
1F
100
AcDbEntity
  8
0
 48
0.01
100
AcDbPolyline
 90
       20
 70
     0
 43
0.0
 10
705.2328387827873
 20
523.4063929709441
 42
0.6407867916736249
 10
692.6056006416892
 20
496.4959201655108
 42
0.2289202173365143
 10
709.8892238682797
 20
492.2581015957378
 10
709.8892238682797
 20
501.7952120156822
 42
-0.3049204153943832
 10
700.75891355917
 20
503.342777482431
 42
-0.6155147312710236
 10
705.4933254287002
 20
513.1023797148541
 10
711.0273782760789
 20
513.1023797148541
 10
711.0273782760789
 20
491.8858753261202
 10
734.9877139151447
 20
491.8858753261202
 10
734.9877139151447
 20
508.8967899785179
 42
-0.3481766266298435
 10
739.9080212316142
 20
513.1880087879631
 10
743.8125974698364
 20
513.1880087879631
 10
743.8125974698364
 20
523.7867574999238
 10
741.2409201354103
 20
523.7867574999238
 42
0.1131811881261881
 10
730.4948725878094
 20
521.4514550562446
 42
0.2371211591682408
 10
723.6161094555477
 20
512.4735701022616
 10
723.6161094555477
 20
501.9570871333717
 10
721.8367815692886
 20
501.9570871333717
 10
721.8367815692886
 20
523.4063929709441
 10
704.9816556210785
 20
523.4063929709441
  0
LWPOLYLINE
  5
3EC
102
{ACAD_REACTORS
330
3E7
102
}
330
1F
100
AcDbEntity
  8
0
 48
0.01
100
AcDbPolyline
 90
       18
 70
     1
 43
0.0
 10
670.8090944481776
 20
513.8366492754149
 42
0.2272277610263213
 10
676.6146188247731
 20
516.5927314800629
 42
0.1683594271327844
 10
679.0920645511172
 20
523.4063929709441
 10
689.7333074534985
 20
523.4063929709441
 42
-0.0331491172199263
 10
688.199432005636
 20
515.4784055950345
 42
-0.128995016605472
 10
684.4592190516132
 20
509.0822014366898
 42
-0.1617579719816668
 10
687.9335116745258
 20
502.7086455566568
 42
-0.0640067649695244
 10
688.7034835055493
 20
495.8043892919373
 10
688.7034835055493
 20
491.8858753261202
 10
678.7285415682123
 20
491.8858753261202
 10
678.7285415682123
 20
495.8043892919373
 42
0.1410855045782453
 10
677.1541152129521
 20
501.1953688739983
 42
0.2275062033354094
 10
673.8883547010158
 20
502.705692469884
 10
670.8090944481776
 20
502.705692469884
 10
670.8090944481776
 20
491.8858753261202
 10
659.9840328517275
 20
491.8858753261202
 10
659.9840328517275
 20
528.169608894383
 10
670.8090944481776
 20
528.169608894383
  0
MTEXT
  5
3ED
330
1F
100
AcDbEntity
  8
0
 48
0.01
100
AcDbMText
 10
824.4753569500812
 20
526.7980103097436
 30
0.0
 40
2.717548651889444
 41
3.15481405195588
 46
0.0
 71
     1
 72
     5
  1
R
 73
     1
 44
1.0
101
Embedded Object
 70
     1
 10
1.0
 20
0.0
 30
0.0
 11
824.4753569500812
 21
526.7980103097436
 31
0.0
 40
3.15481405195588
 41
0.0
 42
2.395001949687013
 43
2.717548651889444
 71
     2
 72
     1
 44
3.15481405195588
 45
27.17548651889447
 73
     0
 74
     0
 46
0.0
  0
CIRCLE
  5
3EE
330
1F
100
AcDbEntity
  8
0
 48
0.01
100
AcDbCircle
 10
825.3878305683796
 20
525.4039487379893
 30
0.0
 40
2.656783313569305
  0
MTEXT
  5
3EF
330
1F
100
AcDbEntity
  8
0
100
AcDbMText
 10
660.09740773667
 20
483.8941967676151
 30
0.0
 40
11.40542061382427
 41
233.6918793793638
 46
0.0
 71
     1
 72
     5
  1
{\fArial|b0|i0|c0|p34;INSPIRED FOR LIVING}
 73
     1
 44
1.0
101
Embedded Object
 70
     1
 10
1.0
 20
0.0
 30
0.0
 11
660.09740773667
 21
483.8941967676151
 31
0.0
 40
233.6918793793638
 41
0.0
 42
167.5025278414983
 43
11.8021985478659
 71
     2
 72
     1
 44
233.6918793793638
 45
1.425677576728034
 73
     0
 74
     0
 46
0.0
  0
MTEXT
  5
3F0
330
1F
100
AcDbEntity
  8
0
100
AcDbMText
 10
656.9655763654572
 20
609.1380595047374
 30
0.0
 40
20.0
 41
455.5328356415318
 46
0.0
 71
     1
 72
     5
  1
Top Mount cut-out
 73
     1
 44
1.0
101
Embedded Object
 70
     1
 10
1.0
 20
0.0
 30
0.0
 11
656.9655763654572
 21
609.1380595047374
 31
0.0
 40
455.5328356415318
 41
0.0
 42
225.8799454297408
 43
25.5525238744884
 71
     2
 72
     1
 44
455.5328356415318
 45
12.5
 73
     0
 74
     0
 46
0.0
  0
MTEXT
  5
3F1
330
1F
100
AcDbEntity
  8
0
  6
ByBlock
370
    -3
100
AcDbMText
 10
660.8667599774547
 20
448.0924173410385
 30
0.0
 40
15.0
 41
310.7859882031444
 46
0.0
 71
     1
 72
     5
  1
EL-35-N\P33" Top Mount Double Bowl Stainless Steel Kitchen Sink \P\P{\H0.8x;www.karran.com\PCustomer Service: (866) 452-7726}
 73
     1
 44
1.0
101
Embedded Object
 70
     1
 10
1.0
 20
0.0
 30
0.0
 11
660.8667599774547
 21
448.0924173410385
 31
0.0
 40
310.7859882031444
 41
0.0
 42
259.8908594815825
 43
137.1111869031378
 71
     2
 72
     1
 44
310.7859882031444
 45
12.5
 73
     0
 74
     0
 46
0.0
  0
LWPOLYLINE
  5
3F2
330
1F
100
AcDbEntity
  8
0
370
    -3
100
AcDbPolyline
 90
        4
 70
     1
 43
0.0
 10
1143.828187803777
 20
496.0400229234322
 10
1430.902080142665
 20
496.0400229234322
 10
1430.902080142665
 20
310.7954099492849
 10
1143.828187803777
 20
310.7954099492849
  0
HATCH
  5
3F3
330
1F
100
AcDbEntity
  8
dimensions
 62
     7
100
AcDbHatch
 10
0.0
 20
0.0
 30
0.0
210
0.0
220
0.0
230
1.0
  2
SOLID
 70
     1
 71
     0
 91
        1
 92
        7
 72
     1
 73
     1
 93
        9
 10
1288.111048506032
 20
470.5140387001875
 42
0.0
 10
1288.111048506032
 20
473.4169886987963
 42
0.0
 10
1280.45476291109
 20
478.3890387007273
 42
0.0
 10
1219.928350370279
 20
478.3890387007273
 42
0.4142135623730951
 10
1215.428350370277
 20
473.8890387007273
 42
0.0
 10
1215.428350370277
 20
318.7886305935596
 42
0.0
 10
1219.373548507851
 20
316.5060377210477
 42
0.0
 10
1219.373548507851
 20
469.1640387001875
 42
-0.4142135623730951
 10
1220.723548507851
 20
470.5140387001875
 42
0.0
 97
        0
 75
     1
 76
     1
 47
0.298664595925875
 98
        1
 10
1246.289441762159
 20
474.4307934739206
450
        0
451
        0
460
0.0
461
0.0
452
        0
462
0.0
453
        0
470

1001
GradientColor1ACI
1070
     5
1001
GradientColor2ACI
1070
     2
1001
ACAD
1010
0.0
1020
0.0
1030
0.0
  0
LINE
  5
3F4
330
1F
100
AcDbEntity
  8
0
  6
Continuous
 62
     7
100
AcDbLine
 10
1219.373548507851
 20
469.1640387001875
 30
0.0
 11
1219.373548507851
 21
316.5060377210477
 31
0.0
  0
ARC
  5
3F5
330
1F
100
AcDbEntity
  8
0
  6
Continuous
 62
     7
100
AcDbCircle
 10
1220.723548507851
 20
469.1640387001875
 30
0.0
 40
1.35
100
AcDbArc
 50
90.0
 51
180.0
  0
LINE
  5
3F6
330
1F
100
AcDbEntity
  8
0
  6
Continuous
 62
     7
100
AcDbLine
 10
1215.428350370277
 20
473.8890387007273
 30
0.0
 11
1215.428350370277
 21
318.7886305935596
 31
0.0
  0
ARC
  5
3F7
330
1F
100
AcDbEntity
  8
0
  6
Continuous
 62
     7
100
AcDbCircle
 10
1219.928350370279
 20
473.8890387007273
 30
0.0
 40
4.5
100
AcDbArc
 50
90.0
 51
180.0
  0
LINE
  5
3F8
330
1F
100
AcDbEntity
  8
0
  6
Continuous
 62
     7
100
AcDbLine
 10
1288.111048506032
 20
473.4169887007275
 30
0.0
 11
1288.111048506032
 21
470.5140387001875
 31
0.0
  0
LINE
  5
3F9
330
1F
100
AcDbEntity
  8
0
  6
Continuous
 62
     7
100
AcDbLine
 10
1220.723548507851
 20
470.5140387001875
 30
0.0
 11
1288.111048506032
 21
470.5140387001875
 31
0.0
  0
LINE
  5
3FA
330
1F
100
AcDbEntity
  8
0
100
AcDbLine
 10
1215.428350370277
 20
318.7886305935597
 30
0.0
 11
1219.373548507851
 21
316.5060377210477
 31
0.0
  0
LINE
  5
3FB
330
1F
100
AcDbEntity
  8
0
  6
Continuous
 62
     7
100
AcDbLine
 10
1219.928350370279
 20
478.3890387007273
 30
0.0
 11
1280.45476291109
 21
478.3890387007273
 31
0.0
  0
LINE
  5
3FC
330
1F
100
AcDbEntity
  8
0
  6
Continuous
 62
     7
100
AcDbLine
 10
1280.45476291109
 20
478.3890387007273
 30
0.0
 11
1288.111048485459
 21
473.4169887121566
 31
0.0
  0
HATCH
  5
3FD
330
1F
100
AcDbEntity
  8
0
 62
     2
100
AcDbHatch
 10
0.0
 20
0.0
 30
0.0
210
0.0
220
0.0
230
1.0
  2
ANSI31
 70
     0
 71
     1
 91
        1
 92
        5
 93
        4
 72
     1
 10
1244.696759181561
 20
470.0180902693485
 11
1244.696759181561
 21
406.0555467652076
 72
     1
 10
1244.696759181561
 20
406.0555467652076
 11
1362.440039244344
 21
406.0555467652076
 72
     4
 94
        3
 73
     0
 74
     0
 95
       10
 96
        6
 40
34.79033646997335
 40
34.79033646997335
 40
34.79033646997335
 40
34.79033646997335
 40
69.1232927357083
 40
105.9354564190348
 40
107.0129359813932
 40
107.0129359813932
 40
107.0129359813932
 40
107.0129359813932
 10
1362.440039244344
 20
406.0555467652078
 10
1368.124346109393
 20
416.1060954967721
 10
1378.012414073242
 20
436.7718868824777
 10
1356.805745089399
 20
455.0894690529643
 10
1355.023250661823
 20
465.3768480242624
 10
1354.979889858306
 20
470.0180902693485
 97
        0
 72
     1
 10
1354.979889858306
 20
470.0180902693485
 11
1244.696759181561
 21
470.0180902693485
 97
        2
330
3FF
330
3FE
 75
     1
 76
     1
 52
0.0
 41
2.0
 77
     0
 78
     1
 53
45.0
 43
682.8764974377986
 44
261.3988680509052
 45
-4.490128060534575
 46
4.490128060534575
 79
     0
 47
0.1994143399616333
 98
        1
 10
1286.835529418763
 20
453.7158623852183
1001
GradientColor1ACI
1070
     5
1001
GradientColor2ACI
1070
     2
1001
ACAD
1010
0.0
1020
0.0
1030
0.0
  0
LWPOLYLINE
  5
3FE
102
{ACAD_REACTORS
330
3FD
102
}
330
1F
100
AcDbEntity
  8
0
100
AcDbPolyline
 90
        4
 70
     0
 43
0.0
 10
1362.440039244344
 20
406.0555467652076
 10
1244.696759181561
 20
406.0555467652076
 10
1244.696759181561
 20
470.0180902693485
 10
1354.979889858306
 20
470.0180902693485
  0
SPLINE
  5
3FF
102
{ACAD_REACTORS
330
3FD
102
}
330
1F
100
AcDbEntity
  8
0
100
AcDbSpline
210
0.0
220
0.0
230
1.0
 70
     8
 71
     3
 72
    10
 73
     6
 74
     0
 42
0.000000001
 43
0.0000000001
 40
34.79033646997336
 40
34.79033646997336
 40
34.79033646997336
 40
34.79033646997336
 40
35.86781603233177
 40
72.67997971565825
 40
107.0129359813932
 40
107.0129359813932
 40
107.0129359813932
 40
107.0129359813932
 10
1354.979889858306
 20
470.0180902693485
 30
0.0
 10
1355.023250661823
 20
465.3768480242624
 30
0.0
 10
1356.805745089399
 20
455.0894690529643
 30
0.0
 10
1378.012414073242
 20
436.7718868824777
 30
0.0
 10
1368.124346109393
 20
416.1060954967721
 30
0.0
 10
1362.440039244344
 20
406.0555467652078
 30
0.0
  0
MTEXT
  5
400
330
1F
100
AcDbEntity
  8
0
  6
ByBlock
370
    -3
100
AcDbMText
 10
1133.259212594673
 20
620.8244522192592
 30
0.0
 40
12.0
 41
325.4845957194941
 46
0.0
 71
     1
 72
     5
  1
Failure to use the proper template will void your warranty and may prevent proper installation. If you have any questions, please contact our customer care team prior to making any cuts in the countertop.
 73
     1
 44
1.0
101
Embedded Object
 70
     1
 10
1.0
 20
0.0
 30
0.0
 11
1133.259212594673
 21
620.8244522192592
 31
0.0
 40
325.4845957194941
 41
0.0
 42
312.3601637107776
 43
95.73260572987722
 71
     2
 72
     1
 44
325.4845957194941
 45
12.5
 73
     0
 74
     0
 46
0.0
  0
ENDSEC
  0
SECTION
  2
OBJECTS
  0
DICTIONARY
  5
C
330
0
100
AcDbDictionary
281
     1
  3
ACAD_CIP_PREVIOUS_PRODUCT_INFO
350
19E
  3
ACAD_COLOR
350
6C
  3
ACAD_DATALINK
350
247
  3
ACAD_DETAILVIEWSTYLE
350
1EB
  3
ACAD_GROUP
350
D
  3
ACAD_LAST_SAVED_VERSION_INFO
350
403
  3
ACAD_LAYOUT
350
1A
  3
ACAD_MATERIAL
350
6B
  3
ACAD_MLEADERSTYLE
350
DE
  3
ACAD_MLINESTYLE
350
17
  3
ACAD_PLOTSETTINGS
350
19
  3
ACAD_PLOTSTYLENAME
350
E
  3
ACAD_RENDER_RAPIDRT_SETTINGS
350
40B
  3
ACAD_SCALELIST
350
B7
  3
ACAD_SECTIONVIEWSTYLE
350
1E9
  3
ACAD_TABLESTYLE
350
92
  3
ACAD_VISUALSTYLE
350
17F
  3
ACDB_RECOMPOSE_DATA
350
649
  3
AcDbVariableDictionary
350
56C
  3
AEC_PROPERTY_SET_DEFS
350
36C
  0
DICTIONARY
  5
FA
330
2
100
AcDbDictionary
280
     1
281
     1
  3
ACAD_LAYERSTATES
360
FB
  0
DICTIONARY
  5
33C
330
33B
100
AcDbDictionary
280
     1
281
     1
  0
XRECORD
  5
19E
102
{ACAD_REACTORS
330
C
102
}
330
C
100
AcDbXrecord
280
     1
300
ACD
300
2025
300

  0
DICTIONARY
  5
6C
102
{ACAD_REACTORS
330
C
102
}
330
C
100
AcDbDictionary
281
     1
  0
DICTIONARY
  5
247
102
{ACAD_REACTORS
330
C
102
}
330
C
100
AcDbDictionary
280
     1
281
     1
  0
DICTIONARY
  5
1EB
102
{ACAD_REACTORS
330
C
102
}
330
C
100
AcDbDictionary
281
     1
  3
Metric50
350
1EC
  0
DICTIONARY
  5
D
102
{ACAD_REACTORS
330
C
102
}
330
C
100
AcDbDictionary
281
     1
  0
XRECORD
  5
403
102
{ACAD_REACTORS
330
C
102
}
330
C
100
AcDbXrecord
280
     1
300
{744AF224-5079-0448-9BCF-2662B0E6FFE0}
301
{CE99A0BE-1F72-8840-8059-5F55F5CEC486}
302
{744AF224-5079-0448-9BCF-2662B0E6FFE0}
303
C:\Users\ahary\Desktop\IM\Installation Guides - Kitchen Sinks\ALL DONE - Elite\Cutouts\ELITE sink Cutout template DXF format\EL-35-N-FSDR3322A0101(KAN).dxf
  0
DICTIONARY
  5
1A
102
{ACAD_REACTORS
330
C
102
}
330
C
100
AcDbDictionary
281
     1
  3
Layout1
350
1E0
  3
Layout2
350
1E4
  3
Model
350
22
  0
DICTIONARY
  5
6B
102
{ACAD_REACTORS
330
C
102
}
330
C
100
AcDbDictionary
281
     1
  3
ByBlock
350
16F
  3
ByLayer
350
167
  3
Global
350
177
  0
DICTIONARY
  5
DE
102
{ACAD_REACTORS
330
C
102
}
330
C
100
AcDbDictionary
281
     1
  3
Annotative
350
246
  3
leader
350
343
  3
Standard
350
E1
  0
DICTIONARY
  5
17
102
{ACAD_REACTORS
330
C
102
}
330
C
100
AcDbDictionary
281
     1
  3
Standard
350
18
  0
DICTIONARY
  5
19
102
{ACAD_REACTORS
330
C
102
}
330
C
100
AcDbDictionary
281
     1
  0
ACDBDICTIONARYWDFLT
  5
E
102
{ACAD_REACTORS
330
C
102
}
330
C
100
AcDbDictionary
281
     1
  3
Normal
350
F
100
AcDbDictionaryWithDefault
340
F
  0
DICTIONARY
  5
40B
102
{ACAD_REACTORS
330
C
102
}
330
C
100
AcDbDictionary
281
     1
  0
DICTIONARY
  5
B7
102
{ACAD_REACTORS
330
C
102
}
330
C
100
AcDbDictionary
281
     1
  3
A0
350
B8
  3
A1
350
229
  3
A2
350
22A
  3
A3
350
22B
  3
A4
350
22C
  3
A5
350
22D
  3
A6
350
22E
  3
A7
350
22F
  3
A8
350
230
  3
A9
350
231
  3
B0
350
232
  3
B1
350
233
  3
B2
350
234
  3
B3
350
235
  3
B4
350
236
  3
B5
350
237
  3
B6
350
238
  0
DICTIONARY
  5
1E9
102
{ACAD_REACTORS
330
C
102
}
330
C
100
AcDbDictionary
281
     1
  3
Metric50
350
1EA
  0
DICTIONARY
  5
92
102
{ACAD_REACTORS
330
C
102
}
330
C
100
AcDbDictionary
281
     1
  3
Standard
350
93
  0
DICTIONARY
  5
17F
102
{ACAD_REACTORS
330
C
102
}
330
C
100
AcDbDictionary
281
     1
  3
2dWireframe
350
185
  3
Basic
350
184
  3
Brighten
350
18B
  3
ColorChange
350
18F
  3
Conceptual
350
188
  3
Dim
350
18A
  3
EdgeColorOff
350
197
  3
Facepattern
350
18E
  3
Flat
350
180
  3
FlatWithEdges
350
181
  3
Gouraud
350
182
  3
GouraudWithEdges
350
183
  3
Hidden
350
187
  3
JitterOff
350
195
  3
Linepattern
350
18D
  3
OverhangOff
350
196
  3
Realistic
350
189
  3
Shaded
350
194
  3
Shaded with edges
350
193
  3
Shades of Gray
350
190
  3
Sketchy
350
191
  3
Thicken
350
18C
  3
Wireframe
350
186
  3
X-Ray
350
192
  0
XRECORD
  5
649
102
{ACAD_REACTORS
330
C
102
}
330
C
100
AcDbXrecord
280
     1
 90
        1
330
93
  0
DICTIONARY
  5
56C
102
{ACAD_REACTORS
330
C
102
}
330
C
100
AcDbDictionary
281
     2
  3
#REVCLOUDAPPROXARCLEN
350
56D
  3
ANNOALLVISIBLE
350
56E
  3
CANNOSCALE
350
56F
  3
CMLEADERSTYLE
350
570
  3
CTABLESTYLE
350
571
  3
CVIEWDETAILSTYLE
350
572
  3
CVIEWSECTIONSTYLE
350
573
  3
DGNFRAME
350
574
  3
DIMADEC
350
575
  3
DIMASSOC
350
576
  3
DIMLAYER
350
577
  3
DWFFRAME
350
578
  3
EXPORTPAPERSPACE
350
579
  3
HIDETEXT
350
57A
  3
HPCOLOR
350
57B
  3
HPINHERIT
350
57C
  3
HPLAYER
350
57D
  3
HPTRANSPARENCY
350
57E
  3
INDEXCTL
350
57F
  3
LAYEREVAL
350
580
  3
LAYERNOTIFY
350
581
  3
LIGHTINGUNITS
350
582
  3
MLEADERSCALE
350
583
  3
MSLTSCALE
350
584
  3
MSOLESCALE
350
585
  3
OLEFRAME
350
586
  3
PDFFRAME
350
587
  3
POINTCLOUDCLIPFRAME
350
588
  3
PROJECTNAME
350
589
  3
SOLIDHIST
350
58A
  3
SORTENTS
350
58B
  0
DICTIONARY
  5
36C
102
{ACAD_REACTORS
330
C
102
}
330
C
100
AcDbDictionary
281
     1
  0
DICTIONARY
  5
FB
102
{ACAD_REACTORS
330
FA
102
}
330
FA
100
AcDbDictionary
281
     1
  0
ACDBDETAILVIEWSTYLE
  5
1EC
102
{ACAD_REACTORS
330
1EB
102
}
330
1EB
100
AcDbModelDocViewStyle
 70
     0
  3
Metric50
290
     0
300
Metric50
 90
        0
100
AcDbDetailViewStyle
 70
     0
 71
     0
 90
        3
 71
     1
340
11
 62
   256
 40
5.0
340
0
 62
   256
 40
5.0
300

 40
0.0
280
     1
 71
     2
340
16
 90
       25
 62
   256
 71
     3
340
11
 62
   256
 40
5.0
 90
        0
 40
15.0
 90
        1
300
%<\AcVar ViewDetailId>% (%<\AcVar ViewScale \f "%sn">%)
 71
     4
340
16
 90
       25
 62
   256
340
16
 90
       25
 62
   256
280
     0
  0
LAYOUT
  5
1E0
102
{ACAD_REACTORS
330
1A
102
}
330
1A
100
AcDbPlotSettings
  1

  2
ZWCAD Virtual Eps Plotter 1.0#:4
  4

  6

 40
0.0
 41
0.0
 42
0.0
 43
0.0
 44
0.0
 45
0.0
 46
0.0
 47
0.0
 48
0.0
 49
0.0
140
0.0
141
0.0
142
1.0
143
1.0
 70
   688
 72
     0
 73
     0
 74
     5
  7

 75
    16
147
1.0
 76
     0
 77
     2
 78
   300
148
0.0
149
0.0
100
AcDbLayout
  1
Layout1
 70
     1
 71
     1
 10
0.0
 20
0.0
 11
12.0
 21
9.0
 12
0.0
 22
0.0
 32
0.0
 14
0.0
 24
0.0
 34
0.0
 15
0.0
 25
0.0
 35
0.0
146
0.0
 13
0.0
 23
0.0
 33
0.0
 16
1.0
 26
0.0
 36
0.0
 17
0.0
 27
1.0
 37
0.0
 76
     0
330
1DF
  0
LAYOUT
  5
1E4
102
{ACAD_REACTORS
330
1A
102
}
330
1A
100
AcDbPlotSettings
  1

  2
ZWCAD Virtual Eps Plotter 1.0#:4
  4

  6

 40
0.0
 41
0.0
 42
0.0
 43
0.0
 44
0.0
 45
0.0
 46
0.0
 47
0.0
 48
0.0
 49
0.0
140
0.0
141
0.0
142
1.0
143
1.0
 70
   688
 72
     0
 73
     0
 74
     5
  7

 75
    16
147
1.0
 76
     0
 77
     2
 78
   300
148
0.0
149
0.0
100
AcDbLayout
  1
Layout2
 70
     1
 71
     2
 10
0.0
 20
0.0
 11
12.0
 21
9.0
 12
0.0
 22
0.0
 32
0.0
 14
0.0
 24
0.0
 34
0.0
 15
0.0
 25
0.0
 35
0.0
146
0.0
 13
0.0
 23
0.0
 33
0.0
 16
1.0
 26
0.0
 36
0.0
 17
0.0
 27
1.0
 37
0.0
 76
     0
330
1E3
  0
LAYOUT
  5
22
102
{ACAD_REACTORS
330
1A
102
}
330
1A
100
AcDbPlotSettings
  1

  2
none_device
  4
none_user_media
  6

 40
6.349999904632567
 41
6.349999904632567
 42
6.350006103515625
 43
6.350006103515625
 44
215.8999938964844
 45
279.3999938964844
 46
0.0
 47
93.24890429069769
 48
0.0
 49
0.0
140
0.0
141
0.0
142
1.0
143
5.333922030356132
 70
 11445
 72
     1
 73
     0
 74
     0
  7

 75
     0
147
0.1874793059045207
 76
     0
 77
     2
 78
   300
148
84.95211750282676
149
-33.53116226043312
100
AcDbLayout
  1
Model
 70
     1
 71
     0
 10
0.0
 20
0.0
 11
420.0
 21
297.0
 12
0.0
 22
0.0
 32
0.0
 14
1.000000000000000E+20
 24
1.000000000000000E+20
 34
1.000000000000000E+20
 15
-1.000000000000000E+20
 25
-1.000000000000000E+20
 35
-1.000000000000000E+20
146
0.0
 13
0.0
 23
0.0
 33
0.0
 16
1.0
 26
0.0
 36
0.0
 17
0.0
 27
1.0
 37
0.0
 76
     0
330
1F
331
1CC
1001
ACAD_PSEXT
1000
None
1000
None
1000
Not applicable
1000
Select a new plotter configuration name to plot the layout.
1070
     0
  0
MATERIAL
  5
16F
102
{ACAD_REACTORS
330
6B
102
}
330
6B
100
AcDbMaterial
  1
ByBlock
 72
     0
 43
0.0008202099737533
 43
0.0
 43
0.0
 43
0.0
 43
0.0
 43
0.0008202099737533
 43
0.0
 43
0.0
 43
0.0
 43
0.0
 43
1.0
 43
0.0
 43
0.0
 43
0.0
 43
0.0
 43
1.0
 77
     0
 47
0.0008202099737533
 47
0.0
 47
0.0
 47
0.0
 47
0.0
 47
0.0008202099737533
 47
0.0
 47
0.0
 47
0.0
 47
0.0
 47
1.0
 47
0.0
 47
0.0
 47
0.0
 47
0.0
 47
1.0
171
     0
 49
0.0008202099737533
 49
0.0
 49
0.0
 49
0.0
 49
0.0
 49
0.0008202099737533
 49
0.0
 49
0.0
 49
0.0
 49
0.0
 49
1.0
 49
0.0
 49
0.0
 49
0.0
 49
0.0
 49
1.0
175
     0
142
0.0008202099737533
142
0.0
142
0.0
142
0.0
142
0.0
142
0.0008202099737533
142
0.0
142
0.0
142
0.0
142
0.0
142
1.0
142
0.0
142
0.0
142
0.0
142
0.0
142
1.0
179
     0
144
0.0008202099737533
144
0.0
144
0.0
144
0.0
144
0.0
144
0.0008202099737533
144
0.0
144
0.0
144
0.0
144
0.0
144
1.0
144
0.0
144
0.0
144
0.0
144
0.0
144
1.0
147
0.0008202099737533
147
0.0
147
0.0
147
0.0
147
0.0
147
0.0008202099737533
147
0.0
147
0.0
147
0.0
147
0.0
147
1.0
147
0.0
147
0.0
147
0.0
147
0.0
147
1.0
  0
MATERIAL
  5
167
102
{ACAD_REACTORS
330
6B
102
}
330
6B
100
AcDbMaterial
  1
ByLayer
 72
     0
 43
0.0008202099737533
 43
0.0
 43
0.0
 43
0.0
 43
0.0
 43
0.0008202099737533
 43
0.0
 43
0.0
 43
0.0
 43
0.0
 43
1.0
 43
0.0
 43
0.0
 43
0.0
 43
0.0
 43
1.0
 77
     0
 47
0.0008202099737533
 47
0.0
 47
0.0
 47
0.0
 47
0.0
 47
0.0008202099737533
 47
0.0
 47
0.0
 47
0.0
 47
0.0
 47
1.0
 47
0.0
 47
0.0
 47
0.0
 47
0.0
 47
1.0
171
     0
 49
0.0008202099737533
 49
0.0
 49
0.0
 49
0.0
 49
0.0
 49
0.0008202099737533
 49
0.0
 49
0.0
 49
0.0
 49
0.0
 49
1.0
 49
0.0
 49
0.0
 49
0.0
 49
0.0
 49
1.0
175
     0
142
0.0008202099737533
142
0.0
142
0.0
142
0.0
142
0.0
142
0.0008202099737533
142
0.0
142
0.0
142
0.0
142
0.0
142
1.0
142
0.0
142
0.0
142
0.0
142
0.0
142
1.0
179
     0
144
0.0008202099737533
144
0.0
144
0.0
144
0.0
144
0.0
144
0.0008202099737533
144
0.0
144
0.0
144
0.0
144
0.0
144
1.0
144
0.0
144
0.0
144
0.0
144
0.0
144
1.0
147
0.0008202099737533
147
0.0
147
0.0
147
0.0
147
0.0
147
0.0008202099737533
147
0.0
147
0.0
147
0.0
147
0.0
147
1.0
147
0.0
147
0.0
147
0.0
147
0.0
147
1.0
  0
MATERIAL
  5
177
102
{ACAD_REACTORS
330
6B
102
}
330
6B
100
AcDbMaterial
  1
Global
 72
     0
 43
0.0008202099737533
 43
0.0
 43
0.0
 43
0.0
 43
0.0
 43
0.0008202099737533
 43
0.0
 43
0.0
 43
0.0
 43
0.0
 43
1.0
 43
0.0
 43
0.0
 43
0.0
 43
0.0
 43
1.0
 77
     0
 47
0.0008202099737533
 47
0.0
 47
0.0
 47
0.0
 47
0.0
 47
0.0008202099737533
 47
0.0
 47
0.0
 47
0.0
 47
0.0
 47
1.0
 47
0.0
 47
0.0
 47
0.0
 47
0.0
 47
1.0
171
     0
 49
0.0008202099737533
 49
0.0
 49
0.0
 49
0.0
 49
0.0
 49
0.0008202099737533
 49
0.0
 49
0.0
 49
0.0
 49
0.0
 49
1.0
 49
0.0
 49
0.0
 49
0.0
 49
0.0
 49
1.0
175
     0
142
0.0008202099737533
142
0.0
142
0.0
142
0.0
142
0.0
142
0.0008202099737533
142
0.0
142
0.0
142
0.0
142
0.0
142
1.0
142
0.0
142
0.0
142
0.0
142
0.0
142
1.0
179
     0
144
0.0008202099737533
144
0.0
144
0.0
144
0.0
144
0.0
144
0.0008202099737533
144
0.0
144
0.0
144
0.0
144
0.0
144
1.0
144
0.0
144
0.0
144
0.0
144
0.0
144
1.0
147
0.0008202099737533
147
0.0
147
0.0
147
0.0
147
0.0
147
0.0008202099737533
147
0.0
147
0.0
147
0.0
147
0.0
147
1.0
147
0.0
147
0.0
147
0.0
147
0.0
147
1.0
  0
MLEADERSTYLE
  5
246
102
{ACAD_REACTORS
330
DE
102
}
330
DE
100
AcDbMLeaderStyle
179
     2
170
     2
171
     1
172
     0
 90
        2
 40
0.0
 41
0.0
173
     1
 91
-1056964608
340
14
 92
       -2
290
     1
 42
2.0
291
     1
 43
8.0
  3
Standard
 44
4.0
300

342
11
174
     1
178
     1
175
     1
176
     0
 93
-1056964608
 45
4.0
292
     0
297
     0
 46
0.18
 94
-1056964608
 47
1.0
 49
1.0
140
1.0
293
     1
141
0.0
294
     1
177
     0
142
1.0
295
     0
296
     1
143
3.75
271
     0
272
     9
273
     9
298
     0
  0
MLEADERSTYLE
  5
343
102
{ACAD_REACTORS
330
DE
330
391
102
}
330
DE
100
AcDbMLeaderStyle
179
     2
170
     2
171
     1
172
     0
 90
        2
 40
0.0
 41
0.0
173
     1
 91
-1023410174
340
14
 92
        5
290
     1
 42
2.0
291
     1
 43
8.0
  3
Standard
 44
10.0
300

342
11
174
     1
178
     1
175
     1
176
     0
 93
-1056964608
 45
4.0
292
     0
297
     0
 46
4.0
 94
-1056964608
 47
1.0
 49
1.0
140
1.0
293
     1
141
0.0
294
     1
177
     0
142
1.0
295
     0
296
     0
143
3.75
271
     0
272
     9
273
     9
298
     0
1001
ACAD_MLEADERVER
1070
     2
  0
MLEADERSTYLE
  5
E1
102
{ACAD_REACTORS
330
DE
102
}
330
DE
100
AcDbMLeaderStyle
179
     2
170
     2
171
     1
172
     0
 90
        2
 40
0.0
 41
0.0
173
     1
 91
-1056964608
340
14
 92
       -2
290
     1
 42
2.0
291
     1
 43
8.0
  3
Standard
 44
4.0
300

342
11
174
     1
178
     1
175
     1
176
     0
 93
-1056964608
 45
4.0
292
     0
297
     0
 46
0.18
 94
-1056964608
 47
1.0
 49
1.0
140
1.0
293
     1
141
0.0
294
     1
177
     0
142
1.0
295
     0
296
     0
143
3.75
271
     0
272
     9
273
     9
298
     0
  0
MLINESTYLE
  5
18
102
{ACAD_REACTORS
330
17
102
}
330
17
100
AcDbMlineStyle
  2
STANDARD
 70
     0
  3

 62
   256
 51
90.0
 52
90.0
 71
     2
 49
0.5
 62
   256
  6
BYLAYER
 49
-0.5
 62
   256
  6
BYLAYER
  0
ACDBPLACEHOLDER
  5
F
102
{ACAD_REACTORS
330
E
102
}
330
E
  0
SCALE
  5
B8
102
{ACAD_REACTORS
330
B7
102
}
330
B7
100
AcDbScale
 70
     0
300
1:1
140
1.0
141
1.0
290
     1
  0
SCALE
  5
229
102
{ACAD_REACTORS
330
B7
102
}
330
B7
100
AcDbScale
 70
     0
300
1:2
140
1.0
141
2.0
290
     0
  0
SCALE
  5
22A
102
{ACAD_REACTORS
330
B7
102
}
330
B7
100
AcDbScale
 70
     0
300
1:4
140
1.0
141
4.0
290
     0
  0
SCALE
  5
22B
102
{ACAD_REACTORS
330
B7
102
}
330
B7
100
AcDbScale
 70
     0
300
1:5
140
1.0
141
5.0
290
     0
  0
SCALE
  5
22C
102
{ACAD_REACTORS
330
B7
102
}
330
B7
100
AcDbScale
 70
     0
300
1:8
140
1.0
141
8.0
290
     0
  0
SCALE
  5
22D
102
{ACAD_REACTORS
330
B7
102
}
330
B7
100
AcDbScale
 70
     0
300
1:10
140
1.0
141
10.0
290
     0
  0
SCALE
  5
22E
102
{ACAD_REACTORS
330
B7
102
}
330
B7
100
AcDbScale
 70
     0
300
1:16
140
1.0
141
16.0
290
     0
  0
SCALE
  5
22F
102
{ACAD_REACTORS
330
B7
102
}
330
B7
100
AcDbScale
 70
     0
300
1:20
140
1.0
141
20.0
290
     0
  0
SCALE
  5
230
102
{ACAD_REACTORS
330
B7
102
}
330
B7
100
AcDbScale
 70
     0
300
1:30
140
1.0
141
30.0
290
     0
  0
SCALE
  5
231
102
{ACAD_REACTORS
330
B7
102
}
330
B7
100
AcDbScale
 70
     0
300
1:40
140
1.0
141
40.0
290
     0
  0
SCALE
  5
232
102
{ACAD_REACTORS
330
B7
102
}
330
B7
100
AcDbScale
 70
     0
300
1:50
140
1.0
141
50.0
290
     0
  0
SCALE
  5
233
102
{ACAD_REACTORS
330
B7
102
}
330
B7
100
AcDbScale
 70
     0
300
1:100
140
1.0
141
100.0
290
     0
  0
SCALE
  5
234
102
{ACAD_REACTORS
330
B7
102
}
330
B7
100
AcDbScale
 70
     0
300
2:1
140
2.0
141
1.0
290
     0
  0
SCALE
  5
235
102
{ACAD_REACTORS
330
B7
102
}
330
B7
100
AcDbScale
 70
     0
300
4:1
140
4.0
141
1.0
290
     0
  0
SCALE
  5
236
102
{ACAD_REACTORS
330
B7
102
}
330
B7
100
AcDbScale
 70
     0
300
8:1
140
8.0
141
1.0
290
     0
  0
SCALE
  5
237
102
{ACAD_REACTORS
330
B7
102
}
330
B7
100
AcDbScale
 70
     0
300
10:1
140
10.0
141
1.0
290
     0
  0
SCALE
  5
238
102
{ACAD_REACTORS
330
B7
102
}
330
B7
100
AcDbScale
 70
     0
300
100:1
140
100.0
141
1.0
290
     0
  0
ACDBSECTIONVIEWSTYLE
  5
1EA
102
{ACAD_REACTORS
330
1E9
102
}
330
1E9
100
AcDbModelDocViewStyle
 70
     0
  3
Metric50
290
     0
300
Metric50
 90
        0
100
AcDbSectionViewStyle
 70
     0
 71
     0
 90
      102
 71
     1
340
11
 62
   256
 40
5.0
340
0
340
0
 62
   256
 40
5.0
300
I, O, Q, S, X, Z
 40
10.0
 90
        0
 40
2.5
 90
        0
 71
     2
340
16
 90
       25
 62
   256
340
16
 90
       50
 62
   256
 40
5.0
 40
2.5
 40
5.0
 71
     3
340
11
 62
   256
 40
5.0
 90
        0
 40
15.0
 90
        1
300
%<\AcVar ViewSectionStartId>%-%<\AcVar ViewSectionEndId>% (%<\AcVar ViewScale \f "%sn">%)
 71
     4
 62
   256
 62
   257
300
ANSI31
 40
1.0
 90
        0
290
     0
290
     0
 90
        6
 40
0.0
 40
1.570796326794896
 40
0.2617993877991494
 40
1.308996938995747
 40
-0.2617993877991494
 40
1.832595714594044
  0
TABLESTYLE
  5
93
102
{ACAD_XDICTIONARY
360
249
102
}
102
{ACAD_REACTORS
330
92
102
}
330
92
100
AcDbTableStyle
280
     0
  3
Standard
 70
     0
 71
     0
 40
1.5
 41
1.5
280
     0
281
     0
  7
Standard
140
4.5
170
     2
 62
     0
 63
     7
283
     0
 90
      512
 91
        0
  1

274
    -2
284
     1
 64
     0
275
    -2
285
     1
 65
     0
276
    -2
286
     1
 66
     0
277
    -2
287
     1
 67
     0
278
    -2
288
     1
 68
     0
279
    -2
289
     1
 69
     0
  7
Standard
140
6.0
170
     5
 62
     0
 63
     7
283
     0
 90
      512
 91
        0
  1

274
    -2
284
     1
 64
     0
275
    -2
285
     1
 65
     0
276
    -2
286
     1
 66
     0
277
    -2
287
     1
 67
     0
278
    -2
288
     1
 68
     0
279
    -2
289
     1
 69
     0
  7
Standard
140
4.5
170
     5
 62
     0
 63
     7
283
     0
 90
      512
 91
        0
  1

274
    -2
284
     1
 64
     0
275
    -2
285
     1
 65
     0
276
    -2
286
     1
 66
     0
277
    -2
287
     1
 67
     0
278
    -2
288
     1
 68
     0
279
    -2
289
     1
 69
     0
1001
ACAD
1000
AcRTDxfName
1000
TABLESTYLE
  0
VISUALSTYLE
  5
185
102
{ACAD_REACTORS
330
17F
102
}
330
17F
100
AcDbVisualStyle
  2
2dWireframe
 70
     4
177
     3
291
     0
 70
    58
 90
        0
176
     1
 90
        2
176
     1
 90
        0
176
     1
 90
        0
176
     1
 40
0.6
176
     1
 40
30.0
176
     1
 62
     7
420
 16777215
176
     1
 90
        1
176
     1
 90
        4
176
     1
 62
     7
176
     1
 62
   257
176
     1
 90
        1
176
     1
 90
        1
176
     1
 40
1.0
176
     1
 90
        0
176
     1
 62
   257
176
     1
 40
1.0
176
     1
 90
        1
176
     1
 90
        6
176
     1
 90
        2
176
     1
 62
     7
176
     1
 90
        5
176
     1
 90
        0
176
     1
 90
        0
176
     1
290
     0
176
     1
 90
        1
176
     1
 40
0.0
176
     1
 90
        0
176
     1
290
     1
176
     1
290
     1
176
     1
290
     0
176
     1
290
     0
176
     1
290
     0
176
     1
290
     0
176
     1
290
     0
176
     1
290
     0
176
     1
290
     0
176
     1
 90
       50
176
     1
 40
0.0
176
     1
 40
1.0
176
     1
 90
        0
176
     1
 62
    18
176
     1
 90
       50
176
     1
 90
        3
176
     1
 62
     5
420
      255
176
     1
290
     0
176
     1
 90
       50
176
     1
 90
       50
176
     1
 90
       50
176
     1
290
     0
176
     1
 90
       50
176
     1
 62
   256
176
     0
 40
1.0
176
     0
 90
        0
176
     1
  1
strokes_ogs.tif
176
     1
290
     0
176
     1
 40
1.0
176
     1
 40
1.0
176
     1
  0
VISUALSTYLE
  5
184
102
{ACAD_REACTORS
330
17F
102
}
330
17F
100
AcDbVisualStyle
  2
Basic
 70
     7
177
     3
291
     1
 70
    58
 90
        1
176
     1
 90
        0
176
     1
 90
        1
176
     1
 90
        0
176
     1
 40
0.6
176
     1
 40
30.0
176
     1
 62
     7
420
 16777215
176
     1
 90
        0
176
     1
 90
        4
176
     1
 62
     7
176
     1
 62
   257
176
     1
 90
        1
176
     1
 90
        1
176
     1
 40
1.0
176
     1
 90
        8
176
     1
 62
     7
176
     1
 40
1.0
176
     1
 90
        1
176
     1
 90
        6
176
     1
 90
        2
176
     1
 62
     7
176
     1
 90
        5
176
     1
 90
        0
176
     1
 90
        0
176
     1
290
     0
176
     1
 90
        1
176
     1
 40
0.0
176
     1
 90
        0
176
     1
290
     0
176
     1
290
     1
176
     1
290
     1
176
     1
290
     0
176
     1
290
     0
176
     1
290
     0
176
     1
290
     0
176
     1
290
     0
176
     1
290
     0
176
     1
 90
       50
176
     1
 40
0.0
176
     1
 40
1.0
176
     1
 90
        0
176
     1
 62
    18
176
     1
 90
       50
176
     1
 90
        3
176
     1
 62
     5
420
      255
176
     1
290
     0
176
     1
 90
       50
176
     1
 90
       50
176
     1
 90
       50
176
     1
290
     0
176
     1
 90
       50
176
     1
 62
   256
176
     0
 40
1.0
176
     0
 90
        0
176
     1
  1
strokes_ogs.tif
176
     1
290
     0
176
     1
 40
1.0
176
     1
 40
1.0
176
     1
  0
VISUALSTYLE
  5
18B
102
{ACAD_REACTORS
330
17F
102
}
330
17F
100
AcDbVisualStyle
  2
Brighten
 70
    12
177
     3
291
     1
 70
    58
 90
        2
176
     1
 90
        2
176
     1
 90
        0
176
     1
 90
        0
176
     1
 40
0.6
176
     1
 40
30.0
176
     1
 62
     7
420
 16777215
176
     1
 90
        1
176
     1
 90
        4
176
     1
 62
     7
176
     1
 62
   257
176
     1
 90
        1
176
     1
 90
        1
176
     1
 40
1.0
176
     1
 90
        8
176
     1
 62
     7
176
     1
 40
1.0
176
     1
 90
        1
176
     1
 90
        6
176
     1
 90
        2
176
     1
 62
     7
176
     1
 90
        5
176
     1
 90
        0
176
     1
 90
        0
176
     1
290
     0
176
     1
 90
        1
176
     1
 40
50.0
176
     1
 90
        0
176
     1
290
     0
176
     1
290
     1
176
     1
290
     1
176
     1
290
     0
176
     1
290
     0
176
     1
290
     0
176
     1
290
     0
176
     1
290
     0
176
     1
290
     0
176
     1
 90
       50
176
     1
 40
0.0
176
     1
 40
1.0
176
     1
 90
        0
176
     1
 62
    18
176
     1
 90
       50
176
     1
 90
        3
176
     1
 62
     5
420
      255
176
     1
290
     0
176
     1
 90
       50
176
     1
 90
       50
176
     1
 90
       50
176
     1
290
     0
176
     1
 90
       50
176
     1
 62
   256
176
     0
 40
1.0
176
     0
 90
        0
176
     1
  1
strokes_ogs.tif
176
     1
290
     0
176
     1
 40
1.0
176
     1
 40
1.0
176
     1
  0
VISUALSTYLE
  5
18F
102
{ACAD_REACTORS
330
17F
102
}
330
17F
100
AcDbVisualStyle
  2
ColorChange
 70
    16
177
     3
291
     1
 70
    58
 90
        2
176
     1
 90
        2
176
     1
 90
        3
176
     1
 90
        0
176
     1
 40
0.6
176
     1
 40
30.0
176
     1
 62
     8
420
  8421504
176
     1
 90
        1
176
     1
 90
        4
176
     1
 62
     7
176
     1
 62
   257
176
     1
 90
        1
176
     1
 90
        1
176
     1
 40
1.0
176
     1
 90
        8
176
     1
 62
     8
420
  8421504
176
     1
 40
1.0
176
     1
 90
        1
176
     1
 90
        6
176
     1
 90
        2
176
     1
 62
     7
176
     1
 90
        5
176
     1
 90
        0
176
     1
 90
        0
176
     1
290
     0
176
     1
 90
        1
176
     1
 40
0.0
176
     1
 90
        0
176
     1
290
     0
176
     1
290
     1
176
     1
290
     1
176
     1
290
     0
176
     1
290
     0
176
     1
290
     0
176
     1
290
     0
176
     1
290
     0
176
     1
290
     0
176
     1
 90
       50
176
     1
 40
0.0
176
     1
 40
1.0
176
     1
 90
        0
176
     1
 62
    18
176
     1
 90
       50
176
     1
 90
        3
176
     1
 62
     5
420
      255
176
     1
290
     0
176
     1
 90
       50
176
     1
 90
       50
176
     1
 90
       50
176
     1
290
     0
176
     1
 90
       50
176
     1
 62
   256
176
     0
 40
1.0
176
     0
 90
        0
176
     1
  1
strokes_ogs.tif
176
     1
290
     0
176
     1
 40
1.0
176
     1
 40
1.0
176
     1
  0
VISUALSTYLE
  5
188
102
{ACAD_REACTORS
330
17F
102
}
330
17F
100
AcDbVisualStyle
  2
Conceptual
 70
     9
177
     3
291
     0
 70
    58
 90
        3
176
     1
 90
        2
176
     1
 90
        0
176
     1
 90
        0
176
     1
 40
0.6
176
     1
 40
30.0
176
     1
 62
     7
420
 16777215
176
     1
 90
        2
176
     1
 90
        2
176
     1
 62
     7
176
     1
 62
   257
176
     1
 90
        1
176
     1
 90
        1
176
     1
 40
179.0
176
     1
 90
        8
176
     1
 62
     7
176
     1
 40
1.0
176
     1
 90
        1
176
     1
 90
        6
176
     1
 90
        2
176
     1
 62
     7
176
     1
 90
        3
176
     1
 90
        0
176
     1
 90
        0
176
     1
290
     0
176
     1
 90
        1
176
     1
 40
0.0
176
     1
 90
        0
176
     1
290
     0
176
     1
290
     1
176
     1
290
     1
176
     1
290
     0
176
     1
290
     0
176
     1
290
     0
176
     1
290
     0
176
     1
290
     0
176
     1
290
     0
176
     1
 90
       50
176
     1
 40
0.0
176
     1
 40
1.0
176
     1
 90
        0
176
     1
 62
    18
176
     1
 90
       50
176
     1
 90
        3
176
     1
 62
     5
420
      255
176
     1
290
     0
176
     1
 90
       50
176
     1
 90
       50
176
     1
 90
       50
176
     1
290
     0
176
     1
 90
       50
176
     1
 62
   256
176
     0
 40
1.0
176
     0
 90
        0
176
     1
  1
strokes_ogs.tif
176
     1
290
     0
176
     1
 40
1.0
176
     1
 40
1.0
176
     1
  0
VISUALSTYLE
  5
18A
102
{ACAD_REACTORS
330
17F
102
}
330
17F
100
AcDbVisualStyle
  2
Dim
 70
    11
177
     3
291
     1
 70
    58
 90
        2
176
     1
 90
        2
176
     1
 90
        0
176
     1
 90
        0
176
     1
 40
0.6
176
     1
 40
30.0
176
     1
 62
     7
420
 16777215
176
     1
 90
        1
176
     1
 90
        4
176
     1
 62
     7
176
     1
 62
   257
176
     1
 90
        1
176
     1
 90
        1
176
     1
 40
1.0
176
     1
 90
        8
176
     1
 62
     7
176
     1
 40
1.0
176
     1
 90
        1
176
     1
 90
        6
176
     1
 90
        2
176
     1
 62
     7
176
     1
 90
        5
176
     1
 90
        0
176
     1
 90
        0
176
     1
290
     0
176
     1
 90
        1
176
     1
 40
-50.0
176
     1
 90
        0
176
     1
290
     0
176
     1
290
     1
176
     1
290
     1
176
     1
290
     0
176
     1
290
     0
176
     1
290
     0
176
     1
290
     0
176
     1
290
     0
176
     1
290
     0
176
     1
 90
       50
176
     1
 40
0.0
176
     1
 40
1.0
176
     1
 90
        0
176
     1
 62
    18
176
     1
 90
       50
176
     1
 90
        3
176
     1
 62
     5
420
      255
176
     1
290
     0
176
     1
 90
       50
176
     1
 90
       50
176
     1
 90
       50
176
     1
290
     0
176
     1
 90
       50
176
     1
 62
   256
176
     0
 40
1.0
176
     0
 90
        0
176
     1
  1
strokes_ogs.tif
176
     1
290
     0
176
     1
 40
1.0
176
     1
 40
1.0
176
     1
  0
VISUALSTYLE
  5
197
102
{ACAD_REACTORS
330
17F
102
}
330
17F
100
AcDbVisualStyle
  2
EdgeColorOff
 70
    22
177
     3
291
     1
 70
    58
 90
        2
176
     0
 90
        2
176
     0
 90
        0
176
     0
 90
        0
176
     0
 40
0.6
176
     0
 40
30.0
176
     0
 62
     7
420
 16777215
176
     0
 90
        1
176
     0
 90
        4
176
     0
 62
     7
176
     0
 62
   257
176
     0
 90
        1
176
     0
 90
        1
176
     0
 40
1.0
176
     0
 90
        8
176
     2
 62
     7
176
     0
 40
1.0
176
     0
 90
        1
176
     0
 90
        6
176
     0
 90
        2
176
     0
 62
     7
176
     0
 90
        5
176
     0
 90
        0
176
     0
 90
        0
176
     0
290
     0
176
     0
 90
        1
176
     0
 40
0.0
176
     0
 90
        0
176
     0
290
     0
176
     1
290
     1
176
     1
290
     1
176
     1
290
     0
176
     1
290
     0
176
     1
290
     0
176
     1
290
     0
176
     1
290
     0
176
     1
290
     0
176
     1
 90
       50
176
     1
 40
0.0
176
     1
 40
1.0
176
     1
 90
        0
176
     1
 62
    18
176
     1
 90
       50
176
     1
 90
        3
176
     1
 62
     5
420
      255
176
     1
290
     0
176
     1
 90
       50
176
     1
 90
       50
176
     1
 90
       50
176
     1
290
     0
176
     1
 90
       50
176
     1
 62
   256
176
     0
 40
1.0
176
     0
 90
        0
176
     1
  1
strokes_ogs.tif
176
     1
290
     0
176
     1
 40
1.0
176
     1
 40
1.0
176
     1
  0
VISUALSTYLE
  5
18E
102
{ACAD_REACTORS
330
17F
102
}
330
17F
100
AcDbVisualStyle
  2
Facepattern
 70
    15
177
     3
291
     1
 70
    58
 90
        2
176
     1
 90
        2
176
     1
 90
        0
176
     1
 90
        0
176
     1
 40
0.6
176
     1
 40
30.0
176
     1
 62
     7
420
 16777215
176
     1
 90
        1
176
     1
 90
        4
176
     1
 62
     7
176
     1
 62
   257
176
     1
 90
        1
176
     1
 90
        1
176
     1
 40
1.0
176
     1
 90
        8
176
     1
 62
     7
176
     1
 40
1.0
176
     1
 90
        1
176
     1
 90
        6
176
     1
 90
        2
176
     1
 62
     7
176
     1
 90
        5
176
     1
 90
        0
176
     1
 90
        0
176
     1
290
     0
176
     1
 90
        1
176
     1
 40
0.0
176
     1
 90
        0
176
     1
290
     0
176
     1
290
     1
176
     1
290
     1
176
     1
290
     0
176
     1
290
     0
176
     1
290
     0
176
     1
290
     0
176
     1
290
     0
176
     1
290
     0
176
     1
 90
       50
176
     1
 40
0.0
176
     1
 40
1.0
176
     1
 90
        0
176
     1
 62
    18
176
     1
 90
       50
176
     1
 90
        3
176
     1
 62
     5
420
      255
176
     1
290
     0
176
     1
 90
       50
176
     1
 90
       50
176
     1
 90
       50
176
     1
290
     0
176
     1
 90
       50
176
     1
 62
   256
176
     0
 40
1.0
176
     0
 90
        0
176
     1
  1
strokes_ogs.tif
176
     1
290
     0
176
     1
 40
1.0
176
     1
 40
1.0
176
     1
  0
VISUALSTYLE
  5
180
102
{ACAD_REACTORS
330
17F
102
}
330
17F
100
AcDbVisualStyle
  2
Flat
 70
     0
177
     3
291
     1
 70
    58
 90
        2
176
     1
 90
        1
176
     1
 90
        1
176
     1
 90
        2
176
     1
 40
0.6
176
     1
 40
30.0
176
     1
 62
     7
420
 16777215
176
     1
 90
        0
176
     1
 90
        0
176
     1
 62
     7
176
     1
 62
   257
176
     1
 90
        1
176
     1
 90
        1
176
     1
 40
1.0
176
     1
 90
        8
176
     1
 62
     7
176
     1
 40
1.0
176
     1
 90
        1
176
     1
 90
        6
176
     1
 90
        2
176
     1
 62
     7
176
     1
 90
        5
176
     1
 90
        0
176
     1
 90
        0
176
     1
290
     0
176
     1
 90
       13
176
     1
 40
0.0
176
     1
 90
        0
176
     1
290
     0
176
     1
290
     1
176
     1
290
     1
176
     1
290
     0
176
     1
290
     0
176
     1
290
     0
176
     1
290
     0
176
     1
290
     0
176
     1
290
     0
176
     1
 90
       50
176
     1
 40
0.0
176
     1
 40
1.0
176
     1
 90
        0
176
     1
 62
    18
176
     1
 90
       50
176
     1
 90
        3
176
     1
 62
     5
420
      255
176
     1
290
     0
176
     1
 90
       50
176
     1
 90
       50
176
     1
 90
       50
176
     1
290
     0
176
     1
 90
       50
176
     1
 62
   256
176
     0
 40
1.0
176
     0
 90
        0
176
     1
  1
strokes_ogs.tif
176
     1
290
     0
176
     1
 40
1.0
176
     1
 40
1.0
176
     1
  0
VISUALSTYLE
  5
181
102
{ACAD_REACTORS
330
17F
102
}
330
17F
100
AcDbVisualStyle
  2
FlatWithEdges
 70
     1
177
     3
291
     1
 70
    58
 90
        2
176
     1
 90
        1
176
     1
 90
        1
176
     1
 90
        2
176
     1
 40
0.6
176
     1
 40
30.0
176
     1
 62
     7
420
 16777215
176
     1
 90
        1
176
     1
 90
        0
176
     1
 62
     7
176
     1
 62
   257
176
     1
 90
        1
176
     1
 90
        1
176
     1
 40
1.0
176
     1
 90
        0
176
     1
 62
   257
176
     1
 40
1.0
176
     1
 90
        1
176
     1
 90
        6
176
     1
 90
        2
176
     1
 62
     7
176
     1
 90
        5
176
     1
 90
        0
176
     1
 90
        0
176
     1
290
     0
176
     1
 90
       13
176
     1
 40
0.0
176
     1
 90
        0
176
     1
290
     0
176
     1
290
     1
176
     1
290
     1
176
     1
290
     0
176
     1
290
     0
176
     1
290
     0
176
     1
290
     0
176
     1
290
     0
176
     1
290
     0
176
     1
 90
       50
176
     1
 40
0.0
176
     1
 40
1.0
176
     1
 90
        0
176
     1
 62
    18
176
     1
 90
       50
176
     1
 90
        3
176
     1
 62
     5
420
      255
176
     1
290
     0
176
     1
 90
       50
176
     1
 90
       50
176
     1
 90
       50
176
     1
290
     0
176
     1
 90
       50
176
     1
 62
   256
176
     0
 40
1.0
176
     0
 90
        0
176
     1
  1
strokes_ogs.tif
176
     1
290
     0
176
     1
 40
1.0
176
     1
 40
1.0
176
     1
  0
VISUALSTYLE
  5
182
102
{ACAD_REACTORS
330
17F
102
}
330
17F
100
AcDbVisualStyle
  2
Gouraud
 70
     2
177
     3
291
     1
 70
    58
 90
        2
176
     1
 90
        2
176
     1
 90
        1
176
     1
 90
        2
176
     1
 40
0.6
176
     1
 40
30.0
176
     1
 62
     7
420
 16777215
176
     1
 90
        0
176
     1
 90
        0
176
     1
 62
     7
176
     1
 62
   257
176
     1
 90
        1
176
     1
 90
        1
176
     1
 40
1.0
176
     1
 90
        0
176
     1
 62
     7
176
     1
 40
1.0
176
     1
 90
        1
176
     1
 90
        6
176
     1
 90
        2
176
     1
 62
     7
176
     1
 90
        5
176
     1
 90
        0
176
     1
 90
        0
176
     1
290
     0
176
     1
 90
       13
176
     1
 40
0.0
176
     1
 90
        0
176
     1
290
     0
176
     1
290
     1
176
     1
290
     1
176
     1
290
     0
176
     1
290
     0
176
     1
290
     0
176
     1
290
     0
176
     1
290
     0
176
     1
290
     0
176
     1
 90
       50
176
     1
 40
0.0
176
     1
 40
1.0
176
     1
 90
        0
176
     1
 62
    18
176
     1
 90
       50
176
     1
 90
        3
176
     1
 62
     5
420
      255
176
     1
290
     0
176
     1
 90
       50
176
     1
 90
       50
176
     1
 90
       50
176
     1
290
     0
176
     1
 90
       50
176
     1
 62
   256
176
     0
 40
1.0
176
     0
 90
        0
176
     1
  1
strokes_ogs.tif
176
     1
290
     0
176
     1
 40
1.0
176
     1
 40
1.0
176
     1
  0
VISUALSTYLE
  5
183
102
{ACAD_REACTORS
330
17F
102
}
330
17F
100
AcDbVisualStyle
  2
GouraudWithEdges
 70
     3
177
     3
291
     1
 70
    58
 90
        2
176
     1
 90
        2
176
     1
 90
        1
176
     1
 90
        2
176
     1
 40
0.6
176
     1
 40
30.0
176
     1
 62
     7
420
 16777215
176
     1
 90
        1
176
     1
 90
        0
176
     1
 62
     7
176
     1
 62
   257
176
     1
 90
        1
176
     1
 90
        1
176
     1
 40
1.0
176
     1
 90
        0
176
     1
 62
   257
176
     1
 40
1.0
176
     1
 90
        1
176
     1
 90
        6
176
     1
 90
        2
176
     1
 62
     7
176
     1
 90
        5
176
     1
 90
        0
176
     1
 90
        0
176
     1
290
     0
176
     1
 90
       13
176
     1
 40
0.0
176
     1
 90
        0
176
     1
290
     0
176
     1
290
     1
176
     1
290
     1
176
     1
290
     0
176
     1
290
     0
176
     1
290
     0
176
     1
290
     0
176
     1
290
     0
176
     1
290
     0
176
     1
 90
       50
176
     1
 40
0.0
176
     1
 40
1.0
176
     1
 90
        0
176
     1
 62
    18
176
     1
 90
       50
176
     1
 90
        3
176
     1
 62
     5
420
      255
176
     1
290
     0
176
     1
 90
       50
176
     1
 90
       50
176
     1
 90
       50
176
     1
290
     0
176
     1
 90
       50
176
     1
 62
   256
176
     0
 40
1.0
176
     0
 90
        0
176
     1
  1
strokes_ogs.tif
176
     1
290
     0
176
     1
 40
1.0
176
     1
 40
1.0
176
     1
  0
VISUALSTYLE
  5
187
102
{ACAD_REACTORS
330
17F
102
}
330
17F
100
AcDbVisualStyle
  2
Hidden
 70
     6
177
     3
291
     0
 70
    58
 90
        1
176
     1
 90
        2
176
     1
 90
        2
176
     1
 90
        0
176
     1
 40
0.6
176
     1
 40
30.0
176
     1
 62
     7
420
 16777215
176
     1
 90
        2
176
     1
 90
        2
176
     1
 62
     7
176
     1
 62
   257
176
     1
 90
        2
176
     1
 90
        1
176
     1
 40
40.0
176
     1
 90
        0
176
     1
 62
   257
176
     1
 40
1.0
176
     1
 90
        1
176
     1
 90
        6
176
     1
 90
        2
176
     1
 62
     7
176
     1
 90
        3
176
     1
 90
        0
176
     1
 90
        0
176
     1
290
     0
176
     1
 90
        1
176
     1
 40
0.0
176
     1
 90
        0
176
     1
290
     0
176
     1
290
     1
176
     1
290
     1
176
     1
290
     0
176
     1
290
     0
176
     1
290
     0
176
     1
290
     0
176
     1
290
     0
176
     1
290
     0
176
     1
 90
       50
176
     1
 40
0.0
176
     1
 40
1.0
176
     1
 90
        0
176
     1
 62
    18
176
     1
 90
       50
176
     1
 90
        3
176
     1
 62
     5
420
      255
176
     1
290
     0
176
     1
 90
       50
176
     1
 90
       50
176
     1
 90
       50
176
     1
290
     0
176
     1
 90
       50
176
     1
 62
   256
176
     0
 40
1.0
176
     0
 90
        0
176
     1
  1
strokes_ogs.tif
176
     1
290
     0
176
     1
 40
1.0
176
     1
 40
1.0
176
     1
  0
VISUALSTYLE
  5
195
102
{ACAD_REACTORS
330
17F
102
}
330
17F
100
AcDbVisualStyle
  2
JitterOff
 70
    20
177
     3
291
     1
 70
    58
 90
        2
176
     0
 90
        2
176
     0
 90
        0
176
     0
 90
        0
176
     0
 40
0.6
176
     0
 40
30.0
176
     0
 62
     7
420
 16777215
176
     0
 90
        1
176
     0
 90
        4
176
     0
 62
     7
176
     0
 62
   257
176
     0
 90
        1
176
     0
 90
        1
176
     0
 40
1.0
176
     0
 90
       10
176
     2
 62
     7
176
     0
 40
1.0
176
     0
 90
        1
176
     0
 90
        6
176
     0
 90
        2
176
     0
 62
     7
176
     0
 90
        5
176
     0
 90
        0
176
     0
 90
        0
176
     0
290
     0
176
     0
 90
        1
176
     0
 40
0.0
176
     0
 90
        0
176
     0
290
     0
176
     1
290
     1
176
     1
290
     1
176
     1
290
     0
176
     1
290
     0
176
     1
290
     0
176
     1
290
     0
176
     1
290
     0
176
     1
290
     0
176
     1
 90
       50
176
     1
 40
0.0
176
     1
 40
1.0
176
     1
 90
        0
176
     1
 62
    18
176
     1
 90
       50
176
     1
 90
        3
176
     1
 62
     5
420
      255
176
     1
290
     0
176
     1
 90
       50
176
     1
 90
       50
176
     1
 90
       50
176
     1
290
     0
176
     1
 90
       50
176
     1
 62
   256
176
     0
 40
1.0
176
     0
 90
        0
176
     1
  1
strokes_ogs.tif
176
     1
290
     0
176
     1
 40
1.0
176
     1
 40
1.0
176
     1
  0
VISUALSTYLE
  5
18D
102
{ACAD_REACTORS
330
17F
102
}
330
17F
100
AcDbVisualStyle
  2
Linepattern
 70
    14
177
     3
291
     1
 70
    58
 90
        2
176
     1
 90
        2
176
     1
 90
        0
176
     1
 90
        0
176
     1
 40
0.6
176
     1
 40
30.0
176
     1
 62
     7
420
 16777215
176
     1
 90
        1
176
     1
 90
        4
176
     1
 62
     7
176
     1
 62
   257
176
     1
 90
        7
176
     1
 90
        7
176
     1
 40
1.0
176
     1
 90
        8
176
     1
 62
     7
176
     1
 40
1.0
176
     1
 90
        1
176
     1
 90
        6
176
     1
 90
        2
176
     1
 62
     7
176
     1
 90
        5
176
     1
 90
        0
176
     1
 90
        0
176
     1
290
     0
176
     1
 90
        1
176
     1
 40
0.0
176
     1
 90
        0
176
     1
290
     0
176
     1
290
     1
176
     1
290
     1
176
     1
290
     0
176
     1
290
     0
176
     1
290
     0
176
     1
290
     0
176
     1
290
     0
176
     1
290
     0
176
     1
 90
       50
176
     1
 40
0.0
176
     1
 40
1.0
176
     1
 90
        0
176
     1
 62
    18
176
     1
 90
       50
176
     1
 90
        3
176
     1
 62
     5
420
      255
176
     1
290
     0
176
     1
 90
       50
176
     1
 90
       50
176
     1
 90
       50
176
     1
290
     0
176
     1
 90
       50
176
     1
 62
   256
176
     0
 40
1.0
176
     0
 90
        0
176
     1
  1
strokes_ogs.tif
176
     1
290
     0
176
     1
 40
1.0
176
     1
 40
1.0
176
     1
  0
VISUALSTYLE
  5
196
102
{ACAD_REACTORS
330
17F
102
}
330
17F
100
AcDbVisualStyle
  2
OverhangOff
 70
    21
177
     3
291
     1
 70
    58
 90
        2
176
     0
 90
        2
176
     0
 90
        0
176
     0
 90
        0
176
     0
 40
0.6
176
     0
 40
30.0
176
     0
 62
     7
420
 16777215
176
     0
 90
        1
176
     0
 90
        4
176
     0
 62
     7
176
     0
 62
   257
176
     0
 90
        1
176
     0
 90
        1
176
     0
 40
1.0
176
     0
 90
        9
176
     2
 62
     7
176
     0
 40
1.0
176
     0
 90
        1
176
     0
 90
        6
176
     0
 90
        2
176
     0
 62
     7
176
     0
 90
        5
176
     0
 90
        0
176
     0
 90
        0
176
     0
290
     0
176
     0
 90
        1
176
     0
 40
0.0
176
     0
 90
        0
176
     0
290
     0
176
     1
290
     1
176
     1
290
     1
176
     1
290
     0
176
     1
290
     0
176
     1
290
     0
176
     1
290
     0
176
     1
290
     0
176
     1
290
     0
176
     1
 90
       50
176
     1
 40
0.0
176
     1
 40
1.0
176
     1
 90
        0
176
     1
 62
    18
176
     1
 90
       50
176
     1
 90
        3
176
     1
 62
     5
420
      255
176
     1
290
     0
176
     1
 90
       50
176
     1
 90
       50
176
     1
 90
       50
176
     1
290
     0
176
     1
 90
       50
176
     1
 62
   256
176
     0
 40
1.0
176
     0
 90
        0
176
     1
  1
strokes_ogs.tif
176
     1
290
     0
176
     1
 40
1.0
176
     1
 40
1.0
176
     1
  0
VISUALSTYLE
  5
189
102
{ACAD_REACTORS
330
17F
102
}
330
17F
100
AcDbVisualStyle
  2
Realistic
 70
     8
177
     3
291
     0
 70
    58
 90
        2
176
     1
 90
        3
176
     1
 90
        0
176
     1
 90
        2
176
     1
 40
0.6
176
     1
 40
30.0
176
     1
 62
     7
420
 16777215
176
     1
 90
        0
176
     1
 90
        0
176
     1
 62
     7
176
     1
 62
   257
176
     1
 90
        1
176
     1
 90
        1
176
     1
 40
1.0
176
     1
 90
        8
176
     1
 62
   257
176
     1
 40
1.0
176
     1
 90
        1
176
     1
 90
        6
176
     1
 90
        2
176
     1
 62
     7
176
     1
 90
        3
176
     1
 90
        0
176
     1
 90
        0
176
     1
290
     0
176
     1
 90
       13
176
     1
 40
0.0
176
     1
 90
        0
176
     1
290
     0
176
     1
290
     1
176
     1
290
     1
176
     1
290
     0
176
     1
290
     0
176
     1
290
     0
176
     1
290
     0
176
     1
290
     0
176
     1
290
     0
176
     1
 90
       50
176
     1
 40
0.0
176
     1
 40
1.0
176
     1
 90
        0
176
     1
 62
    18
176
     1
 90
       50
176
     1
 90
        3
176
     1
 62
     5
420
      255
176
     1
290
     0
176
     1
 90
       50
176
     1
 90
       50
176
     1
 90
       50
176
     1
290
     0
176
     1
 90
       50
176
     1
 62
   256
176
     0
 40
1.0
176
     0
 90
        0
176
     1
  1
strokes_ogs.tif
176
     1
290
     0
176
     1
 40
1.0
176
     1
 40
1.0
176
     1
  0
VISUALSTYLE
  5
194
102
{ACAD_REACTORS
330
17F
102
}
330
17F
100
AcDbVisualStyle
  2
Shaded
 70
    27
177
     3
291
     0
 70
    58
 90
        2
176
     1
 90
        2
176
     1
 90
        1
176
     1
 90
        2
176
     1
 40
0.6
176
     1
 40
30.0
176
     1
 62
     7
420
 16777215
176
     1
 90
        0
176
     1
 90
        4
176
     1
 62
     7
176
     1
 62
   257
176
     1
 90
        1
176
     1
 90
        1
176
     1
 40
1.0
176
     1
 90
        8
176
     1
 62
   257
176
     1
 40
1.0
176
     1
 90
        1
176
     1
 90
        6
176
     1
 90
        2
176
     1
 62
     8
420
  7895160
176
     1
 90
        3
176
     1
 90
        0
176
     1
 90
        0
176
     1
290
     0
176
     1
 90
        5
176
     1
 40
0.0
176
     1
 90
        0
176
     1
290
     0
176
     1
290
     1
176
     1
290
     1
176
     1
290
     0
176
     1
290
     0
176
     1
290
     0
176
     1
290
     0
176
     1
290
     0
176
     1
290
     0
176
     1
 90
       50
176
     1
 40
0.0
176
     1
 40
1.0
176
     1
 90
        0
176
     1
 62
    18
176
     1
 90
       50
176
     1
 90
        3
176
     1
 62
     5
420
      255
176
     1
290
     0
176
     1
 90
       50
176
     1
 90
       50
176
     1
 90
       50
176
     1
290
     0
176
     1
 90
       50
176
     1
 62
   256
176
     0
 40
1.0
176
     0
 90
        0
176
     1
  1
strokes_ogs.tif
176
     1
290
     0
176
     1
 40
1.0
176
     1
 40
1.0
176
     1
  0
VISUALSTYLE
  5
193
102
{ACAD_REACTORS
330
17F
102
}
330
17F
100
AcDbVisualStyle
  2
Shaded with edges
 70
    26
177
     3
291
     0
 70
    58
 90
        2
176
     1
 90
        2
176
     1
 90
        1
176
     1
 90
        2
176
     1
 40
0.6
176
     1
 40
30.0
176
     1
 62
     7
420
 16777215
176
     1
 90
        1
176
     1
 90
       10
176
     1
 62
     7
176
     1
 62
   257
176
     1
 90
        2
176
     1
 90
        1
176
     1
 40
1.0
176
     1
 90
        8
176
     1
 62
   257
176
     1
 40
1.0
176
     1
 90
        1
176
     1
 90
        6
176
     1
 90
        2
176
     1
 62
     7
176
     1
 90
        3
176
     1
 90
        0
176
     1
 90
        0
176
     1
290
     0
176
     1
 90
        5
176
     1
 40
0.0
176
     1
 90
        0
176
     1
290
     0
176
     1
290
     1
176
     1
290
     1
176
     1
290
     0
176
     1
290
     0
176
     1
290
     0
176
     1
290
     0
176
     1
290
     0
176
     1
290
     0
176
     1
 90
       50
176
     1
 40
0.0
176
     1
 40
1.0
176
     1
 90
        0
176
     1
 62
    18
176
     1
 90
       50
176
     1
 90
        3
176
     1
 62
     5
420
      255
176
     1
290
     0
176
     1
 90
       50
176
     1
 90
       50
176
     1
 90
       50
176
     1
290
     0
176
     1
 90
       50
176
     1
 62
   256
176
     0
 40
1.0
176
     0
 90
        0
176
     1
  1
strokes_ogs.tif
176
     1
290
     0
176
     1
 40
1.0
176
     1
 40
1.0
176
     1
  0
VISUALSTYLE
  5
190
102
{ACAD_REACTORS
330
17F
102
}
330
17F
100
AcDbVisualStyle
  2
Shades of Gray
 70
    23
177
     3
291
     0
 70
    58
 90
        2
176
     1
 90
        2
176
     1
 90
        3
176
     1
 90
        0
176
     1
 40
0.6
176
     1
 40
30.0
176
     1
 62
     7
420
 16777215
176
     1
 90
        2
176
     1
 90
        2
176
     1
 62
     7
176
     1
 62
     7
176
     1
 90
        1
176
     1
 90
        1
176
     1
 40
40.0
176
     1
 90
        8
176
     1
 62
     7
176
     1
 40
1.0
176
     1
 90
        1
176
     1
 90
        6
176
     1
 90
        2
176
     1
 62
     7
176
     1
 90
        3
176
     1
 90
        0
176
     1
 90
        0
176
     1
290
     0
176
     1
 90
        1
176
     1
 40
0.0
176
     1
 90
        0
176
     1
290
     0
176
     1
290
     1
176
     1
290
     1
176
     1
290
     0
176
     1
290
     0
176
     1
290
     0
176
     1
290
     0
176
     1
290
     0
176
     1
290
     0
176
     1
 90
       50
176
     1
 40
0.0
176
     1
 40
1.0
176
     1
 90
        0
176
     1
 62
    18
176
     1
 90
       50
176
     1
 90
        3
176
     1
 62
     5
420
      255
176
     1
290
     0
176
     1
 90
       50
176
     1
 90
       50
176
     1
 90
       50
176
     1
290
     0
176
     1
 90
       50
176
     1
 62
   256
176
     0
 40
1.0
176
     0
 90
        0
176
     1
  1
strokes_ogs.tif
176
     1
290
     0
176
     1
 40
1.0
176
     1
 40
1.0
176
     1
  0
VISUALSTYLE
  5
191
102
{ACAD_REACTORS
330
17F
102
}
330
17F
100
AcDbVisualStyle
  2
Sketchy
 70
    24
177
     3
291
     0
 70
    58
 90
        1
176
     1
 90
        2
176
     1
 90
        2
176
     1
 90
        0
176
     1
 40
0.6
176
     1
 40
30.0
176
     1
 62
     7
420
 16777215
176
     1
 90
        2
176
     1
 90
        2
176
     1
 62
     7
176
     1
 62
     7
176
     1
 90
        1
176
     1
 90
        1
176
     1
 40
40.0
176
     1
 90
       11
176
     1
 62
     7
176
     1
 40
1.0
176
     1
 90
        1
176
     1
 90
        6
176
     1
 90
        2
176
     1
 62
     7
176
     1
 90
        6
176
     1
 90
        0
176
     1
 90
        0
176
     1
290
     0
176
     1
 90
        1
176
     1
 40
0.0
176
     1
 90
        0
176
     1
290
     0
176
     1
290
     1
176
     1
290
     1
176
     1
290
     0
176
     1
290
     0
176
     1
290
     0
176
     1
290
     0
176
     1
290
     0
176
     1
290
     0
176
     1
 90
       50
176
     1
 40
0.0
176
     1
 40
1.0
176
     1
 90
        0
176
     1
 62
    18
176
     1
 90
       50
176
     1
 90
        3
176
     1
 62
     5
420
      255
176
     1
290
     0
176
     1
 90
       50
176
     1
 90
       50
176
     1
 90
       50
176
     1
290
     0
176
     1
 90
       50
176
     1
 62
   256
176
     0
 40
1.0
176
     0
 90
        0
176
     1
  1
strokes_ogs.tif
176
     1
290
     0
176
     1
 40
1.0
176
     1
 40
1.0
176
     1
  0
VISUALSTYLE
  5
18C
102
{ACAD_REACTORS
330
17F
102
}
330
17F
100
AcDbVisualStyle
  2
Thicken
 70
    13
177
     3
291
     1
 70
    58
 90
        2
176
     1
 90
        2
176
     1
 90
        0
176
     1
 90
        0
176
     1
 40
0.6
176
     1
 40
30.0
176
     1
 62
     7
420
 16777215
176
     1
 90
        1
176
     1
 90
        4
176
     1
 62
     7
176
     1
 62
   257
176
     1
 90
        1
176
     1
 90
        1
176
     1
 40
1.0
176
     1
 90
       12
176
     1
 62
     7
176
     1
 40
1.0
176
     1
 90
        1
176
     1
 90
        6
176
     1
 90
        2
176
     1
 62
     7
176
     1
 90
        5
176
     1
 90
        0
176
     1
 90
        0
176
     1
290
     0
176
     1
 90
        1
176
     1
 40
0.0
176
     1
 90
        0
176
     1
290
     0
176
     1
290
     1
176
     1
290
     1
176
     1
290
     0
176
     1
290
     0
176
     1
290
     0
176
     1
290
     0
176
     1
290
     0
176
     1
290
     0
176
     1
 90
       50
176
     1
 40
0.0
176
     1
 40
1.0
176
     1
 90
        0
176
     1
 62
    18
176
     1
 90
       50
176
     1
 90
        3
176
     1
 62
     5
420
      255
176
     1
290
     0
176
     1
 90
       50
176
     1
 90
       50
176
     1
 90
       50
176
     1
290
     0
176
     1
 90
       50
176
     1
 62
   256
176
     0
 40
1.0
176
     0
 90
        0
176
     1
  1
strokes_ogs.tif
176
     1
290
     0
176
     1
 40
1.0
176
     1
 40
1.0
176
     1
  0
VISUALSTYLE
  5
186
102
{ACAD_REACTORS
330
17F
102
}
330
17F
100
AcDbVisualStyle
  2
Wireframe
 70
     5
177
     3
291
     0
 70
    58
 90
        0
176
     1
 90
        2
176
     1
 90
        0
176
     1
 90
        0
176
     1
 40
0.6
176
     1
 40
30.0
176
     1
 62
     7
420
 16777215
176
     1
 90
        1
176
     1
 90
        4
176
     1
 62
     7
176
     1
 62
   257
176
     1
 90
        1
176
     1
 90
        1
176
     1
 40
1.0
176
     1
 90
        0
176
     1
 62
   257
176
     1
 40
1.0
176
     1
 90
        1
176
     1
 90
        6
176
     1
 90
        2
176
     1
 62
     7
176
     1
 90
        3
176
     1
 90
        0
176
     1
 90
        0
176
     1
290
     0
176
     1
 90
        1
176
     1
 40
0.0
176
     1
 90
        0
176
     1
290
     0
176
     1
290
     1
176
     1
290
     1
176
     1
290
     0
176
     1
290
     0
176
     1
290
     0
176
     1
290
     0
176
     1
290
     0
176
     1
290
     0
176
     1
 90
       50
176
     1
 40
0.0
176
     1
 40
1.0
176
     1
 90
        0
176
     1
 62
    18
176
     1
 90
       50
176
     1
 90
        3
176
     1
 62
     5
420
      255
176
     1
290
     0
176
     1
 90
       50
176
     1
 90
       50
176
     1
 90
       50
176
     1
290
     0
176
     1
 90
       50
176
     1
 62
   256
176
     0
 40
1.0
176
     0
 90
        0
176
     1
  1
strokes_ogs.tif
176
     1
290
     0
176
     1
 40
1.0
176
     1
 40
1.0
176
     1
  0
VISUALSTYLE
  5
192
102
{ACAD_REACTORS
330
17F
102
}
330
17F
100
AcDbVisualStyle
  2
X-Ray
 70
    25
177
     3
291
     0
 70
    58
 90
        2
176
     1
 90
        2
176
     1
 90
        1
176
     1
 90
        1
176
     1
 40
0.5
176
     1
 40
30.0
176
     1
 62
     7
420
 16777215
176
     1
 90
        1
176
     1
 90
        0
176
     1
 62
     7
176
     1
 62
   257
176
     1
 90
        1
176
     1
 90
        1
176
     1
 40
1.0
176
     1
 90
        8
176
     1
 62
     7
176
     1
 40
1.0
176
     1
 90
        1
176
     1
 90
        6
176
     1
 90
        2
176
     1
 62
     7
176
     1
 90
        3
176
     1
 90
        0
176
     1
 90
        0
176
     1
290
     0
176
     1
 90
       13
176
     1
 40
0.0
176
     1
 90
        0
176
     1
290
     0
176
     1
290
     1
176
     1
290
     1
176
     1
290
     0
176
     1
290
     0
176
     1
290
     0
176
     1
290
     0
176
     1
290
     0
176
     1
290
     0
176
     1
 90
       50
176
     1
 40
0.0
176
     1
 40
1.0
176
     1
 90
        0
176
     1
 62
    18
176
     1
 90
       50
176
     1
 90
        3
176
     1
 62
     5
420
      255
176
     1
290
     0
176
     1
 90
       50
176
     1
 90
       50
176
     1
 90
       50
176
     1
290
     0
176
     1
 90
       50
176
     1
 62
   256
176
     0
 40
1.0
176
     0
 90
        0
176
     1
  1
strokes_ogs.tif
176
     1
290
     0
176
     1
 40
1.0
176
     1
 40
1.0
176
     1
  0
DICTIONARYVAR
  5
56D
102
{ACAD_REACTORS
330
56C
102
}
330
56C
100
DictionaryVariables
280
     0
  1
600.000000
  0
DICTIONARYVAR
  5
56E
102
{ACAD_REACTORS
330
56C
102
}
330
56C
100
DictionaryVariables
280
     0
  1
1
  0
DICTIONARYVAR
  5
56F
102
{ACAD_REACTORS
330
56C
102
}
330
56C
100
DictionaryVariables
280
     0
  1
1:1
  0
DICTIONARYVAR
  5
570
102
{ACAD_REACTORS
330
56C
102
}
330
56C
100
DictionaryVariables
280
     0
  1
STANDARD
  0
DICTIONARYVAR
  5
571
102
{ACAD_REACTORS
330
56C
102
}
330
56C
100
DictionaryVariables
280
     0
  1
STANDARD
  0
DICTIONARYVAR
  5
572
102
{ACAD_REACTORS
330
56C
102
}
330
56C
100
DictionaryVariables
280
     0
  1
Metric50
  0
DICTIONARYVAR
  5
573
102
{ACAD_REACTORS
330
56C
102
}
330
56C
100
DictionaryVariables
280
     0
  1
Metric50
  0
DICTIONARYVAR
  5
574
102
{ACAD_REACTORS
330
56C
102
}
330
56C
100
DictionaryVariables
280
     0
  1
2
  0
DICTIONARYVAR
  5
575
102
{ACAD_REACTORS
330
56C
102
}
330
56C
100
DictionaryVariables
280
     0
  1
-1
  0
DICTIONARYVAR
  5
576
102
{ACAD_REACTORS
330
56C
102
}
330
56C
100
DictionaryVariables
280
     0
  1
2
  0
DICTIONARYVAR
  5
577
102
{ACAD_REACTORS
330
56C
102
}
330
56C
100
DictionaryVariables
280
     0
  1
S-DIM
  0
DICTIONARYVAR
  5
578
102
{ACAD_REACTORS
330
56C
102
}
330
56C
100
DictionaryVariables
280
     0
  1
2
  0
DICTIONARYVAR
  5
579
102
{ACAD_REACTORS
330
56C
102
}
330
56C
100
DictionaryVariables
280
     0
  1
1
  0
DICTIONARYVAR
  5
57A
102
{ACAD_REACTORS
330
56C
102
}
330
56C
100
DictionaryVariables
280
     0
  1
1
  0
DICTIONARYVAR
  5
57B
102
{ACAD_REACTORS
330
56C
102
}
330
56C
100
DictionaryVariables
280
     0
  1
BYBLOCK
  0
DICTIONARYVAR
  5
57C
102
{ACAD_REACTORS
330
56C
102
}
330
56C
100
DictionaryVariables
280
     0
  1
0
  0
DICTIONARYVAR
  5
57D
102
{ACAD_REACTORS
330
56C
102
}
330
56C
100
DictionaryVariables
280
     0
  1
3
  0
DICTIONARYVAR
  5
57E
102
{ACAD_REACTORS
330
56C
102
}
330
56C
100
DictionaryVariables
280
     0
  1
.
  0
DICTIONARYVAR
  5
57F
102
{ACAD_REACTORS
330
56C
102
}
330
56C
100
DictionaryVariables
280
     0
  1
0
  0
DICTIONARYVAR
  5
580
102
{ACAD_REACTORS
330
56C
102
}
330
56C
100
DictionaryVariables
280
     0
  1
0
  0
DICTIONARYVAR
  5
581
102
{ACAD_REACTORS
330
56C
102
}
330
56C
100
DictionaryVariables
280
     0
  1
0
  0
DICTIONARYVAR
  5
582
102
{ACAD_REACTORS
330
56C
102
}
330
56C
100
DictionaryVariables
280
     0
  1
2
  0
DICTIONARYVAR
  5
583
102
{ACAD_REACTORS
330
56C
102
}
330
56C
100
DictionaryVariables
280
     0
  1
1.000000
  0
DICTIONARYVAR
  5
584
102
{ACAD_REACTORS
330
56C
102
}
330
56C
100
DictionaryVariables
280
     0
  1
1
  0
DICTIONARYVAR
  5
585
102
{ACAD_REACTORS
330
56C
102
}
330
56C
100
DictionaryVariables
280
     0
  1
1.000000
  0
DICTIONARYVAR
  5
586
102
{ACAD_REACTORS
330
56C
102
}
330
56C
100
DictionaryVariables
280
     0
  1
2
  0
DICTIONARYVAR
  5
587
102
{ACAD_REACTORS
330
56C
102
}
330
56C
100
DictionaryVariables
280
     0
  1
1
  0
DICTIONARYVAR
  5
588
102
{ACAD_REACTORS
330
56C
102
}
330
56C
100
DictionaryVariables
280
     0
  1
0
  0
DICTIONARYVAR
  5
589
102
{ACAD_REACTORS
330
56C
102
}
330
56C
100
DictionaryVariables
280
     0
  1

  0
DICTIONARYVAR
  5
58A
102
{ACAD_REACTORS
330
56C
102
}
330
56C
100
DictionaryVariables
280
     0
  1
0
  0
DICTIONARYVAR
  5
58B
102
{ACAD_REACTORS
330
56C
102
}
330
56C
100
DictionaryVariables
280
     0
  1
127
  0
DICTIONARY
  5
249
330
93
100
AcDbDictionary
280
     1
281
     1
  3
ACAD_ROUNDTRIP_2008_TABLESTYLE_CELLSTYLEMAP
360
648
  0
CELLSTYLEMAP
  5
648
102
{ACAD_REACTORS
330
249
102
}
330
249
100
AcDbCellStyleMap
 90
        3
300
CELLSTYLE
  1
TABLEFORMAT_BEGIN
 90
        5
170
     1
 91
        0
 92
    32768
 62
   257
 93
        1
300
CONTENTFORMAT
  1
CONTENTFORMAT_BEGIN
 90
        0
 91
        0
 92
      512
 93
        0
300

 40
0.0
140
1.0
 94
        5
 62
     0
340
11
144
6.0
309
CONTENTFORMAT_END
171
     1
301
MARGIN
  1
CELLMARGIN_BEGIN
 40
1.5
 40
1.5
 40
0.06
 40
0.06
 40
0.18
 40
0.18
309
CELLMARGIN_END
 94
        6
 95
        1
302
GRIDFORMAT
  1
GRIDFORMAT_BEGIN
 90
        0
 91
        1
 62
     0
 92
       -2
340
0
 93
        0
 40
0.045
309
GRIDFORMAT_END
 95
        2
302
GRIDFORMAT
  1
GRIDFORMAT_BEGIN
 90
        0
 91
        1
 62
     0
 92
       -2
340
0
 93
        0
 40
0.045
309
GRIDFORMAT_END
 95
        4
302
GRIDFORMAT
  1
GRIDFORMAT_BEGIN
 90
        0
 91
        1
 62
     0
 92
       -2
340
0
 93
        0
 40
0.045
309
GRIDFORMAT_END
 95
        8
302
GRIDFORMAT
  1
GRIDFORMAT_BEGIN
 90
        0
 91
        1
 62
     0
 92
       -2
340
0
 93
        0
 40
0.045
309
GRIDFORMAT_END
 95
       16
302
GRIDFORMAT
  1
GRIDFORMAT_BEGIN
 90
        0
 91
        1
 62
     0
 92
       -2
340
0
 93
        0
 40
0.045
309
GRIDFORMAT_END
 95
       32
302
GRIDFORMAT
  1
GRIDFORMAT_BEGIN
 90
        0
 91
        1
 62
     0
 92
       -2
340
0
 93
        0
 40
0.045
309
GRIDFORMAT_END
309
TABLEFORMAT_END
  1
CELLSTYLE_BEGIN
 90
        1
 91
        1
300
_TITLE
309
CELLSTYLE_END
300
CELLSTYLE
  1
TABLEFORMAT_BEGIN
 90
        5
170
     1
 91
        0
 92
        0
 62
   257
 93
        1
300
CONTENTFORMAT
  1
CONTENTFORMAT_BEGIN
 90
        0
 91
        0
 92
      512
 93
        0
300

 40
0.0
140
1.0
 94
        5
 62
     0
340
11
144
4.5
309
CONTENTFORMAT_END
171
     1
301
MARGIN
  1
CELLMARGIN_BEGIN
 40
1.5
 40
1.5
 40
0.06
 40
0.06
 40
0.18
 40
0.18
309
CELLMARGIN_END
 94
        6
 95
        1
302
GRIDFORMAT
  1
GRIDFORMAT_BEGIN
 90
        0
 91
        1
 62
     0
 92
       -2
340
0
 93
        0
 40
0.045
309
GRIDFORMAT_END
 95
        2
302
GRIDFORMAT
  1
GRIDFORMAT_BEGIN
 90
        0
 91
        1
 62
     0
 92
       -2
340
0
 93
        0
 40
0.045
309
GRIDFORMAT_END
 95
        4
302
GRIDFORMAT
  1
GRIDFORMAT_BEGIN
 90
        0
 91
        1
 62
     0
 92
       -2
340
0
 93
        0
 40
0.045
309
GRIDFORMAT_END
 95
        8
302
GRIDFORMAT
  1
GRIDFORMAT_BEGIN
 90
        0
 91
        1
 62
     0
 92
       -2
340
0
 93
        0
 40
0.045
309
GRIDFORMAT_END
 95
       16
302
GRIDFORMAT
  1
GRIDFORMAT_BEGIN
 90
        0
 91
        1
 62
     0
 92
       -2
340
0
 93
        0
 40
0.045
309
GRIDFORMAT_END
 95
       32
302
GRIDFORMAT
  1
GRIDFORMAT_BEGIN
 90
        0
 91
        1
 62
     0
 92
       -2
340
0
 93
        0
 40
0.045
309
GRIDFORMAT_END
309
TABLEFORMAT_END
  1
CELLSTYLE_BEGIN
 90
        2
 91
        1
300
_HEADER
309
CELLSTYLE_END
300
CELLSTYLE
  1
TABLEFORMAT_BEGIN
 90
        5
170
     1
 91
        0
 92
        0
 62
   257
 93
        1
300
CONTENTFORMAT
  1
CONTENTFORMAT_BEGIN
 90
        0
 91
        0
 92
      512
 93
        0
300

 40
0.0
140
1.0
 94
        2
 62
     0
340
11
144
4.5
309
CONTENTFORMAT_END
171
     1
301
MARGIN
  1
CELLMARGIN_BEGIN
 40
1.5
 40
1.5
 40
0.06
 40
0.06
 40
0.18
 40
0.18
309
CELLMARGIN_END
 94
        6
 95
        1
302
GRIDFORMAT
  1
GRIDFORMAT_BEGIN
 90
        0
 91
        1
 62
     0
 92
       -2
340
0
 93
        0
 40
0.045
309
GRIDFORMAT_END
 95
        2
302
GRIDFORMAT
  1
GRIDFORMAT_BEGIN
 90
        0
 91
        1
 62
     0
 92
       -2
340
0
 93
        0
 40
0.045
309
GRIDFORMAT_END
 95
        4
302
GRIDFORMAT
  1
GRIDFORMAT_BEGIN
 90
        0
 91
        1
 62
     0
 92
       -2
340
0
 93
        0
 40
0.045
309
GRIDFORMAT_END
 95
        8
302
GRIDFORMAT
  1
GRIDFORMAT_BEGIN
 90
        0
 91
        1
 62
     0
 92
       -2
340
0
 93
        0
 40
0.045
309
GRIDFORMAT_END
 95
       16
302
GRIDFORMAT
  1
GRIDFORMAT_BEGIN
 90
        0
 91
        1
 62
     0
 92
       -2
340
0
 93
        0
 40
0.045
309
GRIDFORMAT_END
 95
       32
302
GRIDFORMAT
  1
GRIDFORMAT_BEGIN
 90
        0
 91
        1
 62
     0
 92
       -2
340
0
 93
        0
 40
0.045
309
GRIDFORMAT_END
309
TABLEFORMAT_END
  1
CELLSTYLE_BEGIN
 90
        3
 91
        2
300
_DATA
309
CELLSTYLE_END
  0
ENDSEC
  0
EOF
